Скачать через торрент музыку Петля времени Looper бесплатно без регистрации torrent

Если у вас наблюдаются проблемы со скриншотами, переходом по ссылками, скачиванием торрентов - проблемы в блокировщике рекламы AdBlock. #хорошегоДня!


Статистика раздачи
Размер:  301 MB   |    Зарегистрирован:  4 года 3 месяца   |    .torrent скачан:  30 раз   |   
Раздают:  1  
   
Загрузка...
 
Автор Сообщение

Galfimbul

avatar Galfimbul


Петля времени / Looper (Limited Edition)
Жанр: Score
Композитор: Nathan Johnson
Год выпуска диска: 2012
Страна: USA
Издатель (лейбл): La La Land Records
Номер по каталогу: LLLCD 1227
Аудиокодек: FLAC (*.flac)
Тип рипа: tracks+.cue
Битрейт аудио: lossless
Продолжительность: 01:04:29
Источник: What.CD (Atemu)
Наличие сканов в содержимом раздачи: нет

[b]Треклист:

</span>
2. A Day In The Life (1:10)
3. Closing Your Loop (2:56)
4. Seth's Tale (2:54)
5. Run (2:49)
6. A Life In A Day (2:22)
7. Time Machine (2:40)
8. Hunting The Past (2:55)
9. Following The Loop (1:42)
10. Mining For Memories (1:54)
11. A New Scar (2:34)
12. Her Face (2:37)
13. City Sweep (0:46)
14. Revelations (5:12)
15. The Rainmaker (4:26)
16. La Belle Aurore (1:01)
17. Showdown (1:36)
18. The Path Was A Circle (4:51)
19. Everything Comes Around (2:41)
20. Withdrawals (0:32)
21. Closing Your Loop (Film Mix) (2:32)
22. Hobo Attack (1:36)
23. Thirty-Two (1:24)
24. Run (Film Mix) (3:04)
25. City Sweep (Film Mix) (1:23)
26. Theme From Looper (Solo Piano Version) (5:28)</span>
X Lossless Decoder version 20130127 (142.3)

XLD extraction logfile from 2013-02-12 21:10:33 +0100

Nathan Johnson / Looper (Limited Edition)

Used drive : MATSHITA DVD-R UJ-8A8 (revision HB14)Media type : Pressed CD

Ripper mode : XLD Secure RipperDisable audio cache : OK for the drive with a cache less than 1375KiBMake use of C2 pointers : NORead offset correction : 102Max retry count : 20Gap status : Analyzed, Appended

TOC of the extracted CD Track | Start | Length | Start sector | End sector --------------------------------------------------------- 1 | 00:00:00 | 01:21:09 | 0 | 6083 2 | 01:21:09 | 01:10:28 | 6084 | 11361 3 | 02:31:37 | 02:56:09 | 11362 | 24570 4 | 05:27:46 | 02:54:34 | 24571 | 37654 5 | 08:22:05 | 02:49:11 | 37655 | 50340 6 | 11:11:16 | 02:21:57 | 50341 | 60972 7 | 13:32:73 | 02:40:06 | 60973 | 72978 8 | 16:13:04 | 02:55:35 | 72979 | 86138 9 | 19:08:39 | 01:41:72 | 86139 | 93785 10 | 20:50:36 | 01:54:25 | 93786 | 102360 11 | 22:44:61 | 02:34:30 | 102361 | 113940 12 | 25:19:16 | 02:37:32 | 113941 | 125747 13 | 27:56:48 | 00:46:18 | 125748 | 129215 14 | 28:42:66 | 05:12:08 | 129216 | 152623 15 | 33:54:74 | 04:25:55 | 152624 | 172553 16 | 38:20:54 | 01:01:01 | 172554 | 177129 17 | 39:21:55 | 01:36:06 | 177130 | 184335 18 | 40:57:61 | 04:51:09 | 184336 | 206169 19 | 45:48:70 | 02:40:72 | 206170 | 218241 20 | 48:29:67 | 00:31:65 | 218242 | 220631 21 | 49:01:57 | 02:32:18 | 220632 | 232049 22 | 51:34:00 | 01:36:09 | 232050 | 239258 23 | 53:10:09 | 01:24:04 | 239259 | 245562 24 | 54:34:13 | 03:04:24 | 245563 | 259386 25 | 57:38:37 | 01:23:35 | 259387 | 265646 26 | 59:01:72 | 05:27:63 | 265647 | 290234

AccurateRip Summary (DiscID: 0039a9a9-04404134-5e0f1d1a) Track 01 : OK (v2, confidence 1/1) Track 02 : OK (v2, confidence 1/1) Track 03 : OK (v2, confidence 1/1) Track 04 : OK (v2, confidence 1/1) Track 05 : OK (v2, confidence 1/1) Track 06 : OK (v2, confidence 1/1) Track 07 : OK (v2, confidence 1/1) Track 08 : OK (v2, confidence 1/1) Track 09 : OK (v2, confidence 1/1) Track 10 : OK (v2, confidence 1/1) Track 11 : OK (v2, confidence 1/1) Track 12 : OK (v2, confidence 1/1) Track 13 : OK (v2, confidence 1/1) Track 14 : OK (v2, confidence 1/1) Track 15 : OK (v2, confidence 1/1) Track 16 : OK (v2, confidence 1/1) Track 17 : OK (v2, confidence 1/1) Track 18 : OK (v2, confidence 1/1) Track 19 : OK (v2, confidence 1/1) Track 20 : OK (v2, confidence 1/1) Track 21 : OK (v2, confidence 1/1) Track 22 : OK (v2, confidence 1/1) Track 23 : OK (v2, confidence 1/1) Track 24 : OK (v2, confidence 1/1) Track 25 : OK (v2, confidence 1/1) Track 26 : OK (v2, confidence 1/1) ->All tracks accurately ripped.

All Tracks Album gain : -4.03 dB Peak : 1.000000 Statistics Read error : 0 Jitter error (maybe fixed) : 0 Retry sector count : 0 Damaged sector count : 0

Track 01 Filename : /Volumes/My Book/Music/Nathan Johnson/Looper (Limited Edition)/01 A Body That Technically Does Not Exist.flac Pre-gap length : 00:02:00

Track gain : -0.67 dB Peak : 0.991272 CRC32 hash (test run) : 6D5A43EE CRC32 hash : 6D5A43EE CRC32 hash (skip zero) : 9DC1B2D2 AccurateRip v1 signature : 28D182A3 AccurateRip v2 signature : 2D77E7F0 ->Accurately ripped (v2, confidence 1/1) Statistics Read error : 0 Jitter error (maybe fixed) : 0 Retry sector count : 0 Damaged sector count : 0

Track 02 Filename : /Volumes/My Book/Music/Nathan Johnson/Looper (Limited Edition)/02 A Day In The Life.flac

Track gain : -4.59 dB Peak : 0.991058 CRC32 hash (test run) : 3AB0DF8F CRC32 hash : 3AB0DF8F CRC32 hash (skip zero) : 8B315BB3 AccurateRip v1 signature : 0A24E657 AccurateRip v2 signature : 7C776888 ->Accurately ripped (v2, confidence 1/1) Statistics Read error : 0 Jitter error (maybe fixed) : 0 Retry sector count : 0 Damaged sector count : 0

Track 03 Filename : /Volumes/My Book/Music/Nathan Johnson/Looper (Limited Edition)/03 Closing Your Loop.flac

Track gain : -3.73 dB Peak : 0.991089 CRC32 hash (test run) : 3A662336 CRC32 hash : 3A662336 CRC32 hash (skip zero) : F650EE5D AccurateRip v1 signature : 8CE980F1 AccurateRip v2 signature : CBDED294 ->Accurately ripped (v2, confidence 1/1) Statistics Read error : 0 Jitter error (maybe fixed) : 0 Retry sector count : 0 Damaged sector count : 0

Track 04 Filename : /Volumes/My Book/Music/Nathan Johnson/Looper (Limited Edition)/04 Seth's Tale.flac

Track gain : -4.41 dB Peak : 1.000000 CRC32 hash (test run) : 0448E638 CRC32 hash : 0448E638 CRC32 hash (skip zero) : 61003EDE AccurateRip v1 signature : 952CB5B7 AccurateRip v2 signature : 518EB033 ->Accurately ripped (v2, confidence 1/1) Statistics Read error : 0 Jitter error (maybe fixed) : 0 Retry sector count : 0 Damaged sector count : 0

Track 05 Filename : /Volumes/My Book/Music/Nathan Johnson/Looper (Limited Edition)/05 Run.flac

Track gain : -4.87 dB Peak : 0.990906 CRC32 hash (test run) : 370F588D CRC32 hash : 370F588D CRC32 hash (skip zero) : E8B9C8E1 AccurateRip v1 signature : 83FC6CC2 AccurateRip v2 signature : 3671ED2C ->Accurately ripped (v2, confidence 1/1) Statistics Read error : 0 Jitter error (maybe fixed) : 0 Retry sector count : 0 Damaged sector count : 0

Track 06 Filename : /Volumes/My Book/Music/Nathan Johnson/Looper (Limited Edition)/06 A Life In A Day.flac

Track gain : -3.09 dB Peak : 0.991180 CRC32 hash (test run) : F279F75A CRC32 hash : F279F75A CRC32 hash (skip zero) : F2E1669D AccurateRip v1 signature : FEEB4930 AccurateRip v2 signature : 9BDB17E8 ->Accurately ripped (v2, confidence 1/1) Statistics Read error : 0 Jitter error (maybe fixed) : 0 Retry sector count : 0 Damaged sector count : 0

Track 07 Filename : /Volumes/My Book/Music/Nathan Johnson/Looper (Limited Edition)/07 Time Machine.flac

Track gain : -5.02 dB Peak : 0.991119 CRC32 hash (test run) : 1189334F CRC32 hash : 1189334F CRC32 hash (skip zero) : 8C755874 AccurateRip v1 signature : 4DBDC514 AccurateRip v2 signature : 550AD00B ->Accurately ripped (v2, confidence 1/1) Statistics Read error : 0 Jitter error (maybe fixed) : 0 Retry sector count : 0 Damaged sector count : 0

Track 08 Filename : /Volumes/My Book/Music/Nathan Johnson/Looper (Limited Edition)/08 Hunting The Past.flac

Track gain : -3.99 dB Peak : 0.991119 CRC32 hash (test run) : 7FC9C098 CRC32 hash : 7FC9C098 CRC32 hash (skip zero) : 22F422FB AccurateRip v1 signature : 8BCAE2B2 AccurateRip v2 signature : 520EB62A ->Accurately ripped (v2, confidence 1/1) Statistics Read error : 0 Jitter error (maybe fixed) : 0 Retry sector count : 0 Damaged sector count : 0

Track 09 Filename : /Volumes/My Book/Music/Nathan Johnson/Looper (Limited Edition)/09 Following The Loop.flac

Track gain : -3.53 dB Peak : 0.991058 CRC32 hash (test run) : 7B66748F CRC32 hash : 7B66748F CRC32 hash (skip zero) : 665FFE3F AccurateRip v1 signature : 57E42D70 AccurateRip v2 signature : 8BA5FCB6 ->Accurately ripped (v2, confidence 1/1) Statistics Read error : 0 Jitter error (maybe fixed) : 0 Retry sector count : 0 Damaged sector count : 0

Track 10 Filename : /Volumes/My Book/Music/Nathan Johnson/Looper (Limited Edition)/10 Mining For Memories.flac

Track gain : -2.61 dB Peak : 0.991028 CRC32 hash (test run) : AF3666CA CRC32 hash : AF3666CA CRC32 hash (skip zero) : 5E9B24FA AccurateRip v1 signature : E5452FE8 AccurateRip v2 signature : 9714EB9A ->Accurately ripped (v2, confidence 1/1) Statistics Read error : 0 Jitter error (maybe fixed) : 0 Retry sector count : 0 Damaged sector count : 0

Track 11 Filename : /Volumes/My Book/Music/Nathan Johnson/Looper (Limited Edition)/11 A New Scar.flac

Track gain : -1.45 dB Peak : 0.990967 CRC32 hash (test run) : 41BB48D8 CRC32 hash : 41BB48D8 CRC32 hash (skip zero) : 4D33F186 AccurateRip v1 signature : 97CE0B33 AccurateRip v2 signature : 4FE7BAB3 ->Accurately ripped (v2, confidence 1/1) Statistics Read error : 0 Jitter error (maybe fixed) : 0 Retry sector count : 0 Damaged sector count : 0

Track 12 Filename : /Volumes/My Book/Music/Nathan Johnson/Looper (Limited Edition)/12 Her Face.flac

Track gain : -2.51 dB Peak : 0.967224 CRC32 hash (test run) : DF440526 CRC32 hash : DF440526 CRC32 hash (skip zero) : 0BB43414 AccurateRip v1 signature : 3A8F0B1E AccurateRip v2 signature : 4DC749D3 ->Accurately ripped (v2, confidence 1/1) Statistics Read error : 0 Jitter error (maybe fixed) : 0 Retry sector count : 0 Damaged sector count : 0

Track 13 Filename : /Volumes/My Book/Music/Nathan Johnson/Looper (Limited Edition)/13 City Sweep.flac

Track gain : -4.97 dB Peak : 0.991089 CRC32 hash (test run) : 2E8B386B CRC32 hash : 2E8B386B CRC32 hash (skip zero) : E0896221 AccurateRip v1 signature : 0FB73611 AccurateRip v2 signature : 602B2802 ->Accurately ripped (v2, confidence 1/1) Statistics Read error : 0 Jitter error (maybe fixed) : 0 Retry sector count : 0 Damaged sector count : 0

Track 14 Filename : /Volumes/My Book/Music/Nathan Johnson/Looper (Limited Edition)/14 Revelations.flac

Track gain : -3.87 dB Peak : 1.000000 CRC32 hash (test run) : 8C4FEE55 CRC32 hash : 8C4FEE55 CRC32 hash (skip zero) : 4234C22F AccurateRip v1 signature : EE7B2498 AccurateRip v2 signature : F030A4D5 ->Accurately ripped (v2, confidence 1/1) Statistics Read error : 0 Jitter error (maybe fixed) : 0 Retry sector count : 0 Damaged sector count : 0

Track 15 Filename : /Volumes/My Book/Music/Nathan Johnson/Looper (Limited Edition)/15 The Rainmaker.flac

Track gain : -0.22 dB Peak : 1.000000 CRC32 hash (test run) : 72D12CEE CRC32 hash : 72D12CEE CRC32 hash (skip zero) : 7A49C23C AccurateRip v1 signature : 7515655E AccurateRip v2 signature : 55BB5E3F ->Accurately ripped (v2, confidence 1/1) Statistics Read error : 0 Jitter error (maybe fixed) : 0 Retry sector count : 0 Damaged sector count : 0

Track 16 Filename : /Volumes/My Book/Music/Nathan Johnson/Looper (Limited Edition)/16 La Belle Aurore.flac

Track gain : -4.57 dB Peak : 0.990906 CRC32 hash (test run) : 445CDDD6 CRC32 hash : 445CDDD6 CRC32 hash (skip zero) : CC78CF1E AccurateRip v1 signature : DAEEAF61 AccurateRip v2 signature : D7D6DFA3 ->Accurately ripped (v2, confidence 1/1) Statistics Read error : 0 Jitter error (maybe fixed) : 0 Retry sector count : 0 Damaged sector count : 0

Track 17 Filename : /Volumes/My Book/Music/Nathan Johnson/Looper (Limited Edition)/17 Showdown.flac

Track gain : -7.19 dB Peak : 0.991211 CRC32 hash (test run) : 3214DEC1 CRC32 hash : 3214DEC1 CRC32 hash (skip zero) : 73C6EAC8 AccurateRip v1 signature : 6FD829D9 AccurateRip v2 signature : FDE43B99 ->Accurately ripped (v2, confidence 1/1) Statistics Read error : 0 Jitter error (maybe fixed) : 0 Retry sector count : 0 Damaged sector count : 0

Track 18 Filename : /Volumes/My Book/Music/Nathan Johnson/Looper (Limited Edition)/18 The Path Was A Circle.flac

Track gain : -3.28 dB Peak : 0.991150 CRC32 hash (test run) : B1E4CAA8 CRC32 hash : B1E4CAA8 CRC32 hash (skip zero) : BD76C9B2 AccurateRip v1 signature : 8610FEFD AccurateRip v2 signature : 434B4956 ->Accurately ripped (v2, confidence 1/1) Statistics Read error : 0 Jitter error (maybe fixed) : 0 Retry sector count : 0 Damaged sector count : 0

Track 19 Filename : /Volumes/My Book/Music/Nathan Johnson/Looper (Limited Edition)/19 Everything Comes Around.flac

Track gain : -5.89 dB Peak : 1.000000 CRC32 hash (test run) : ACC874B0 CRC32 hash : ACC874B0 CRC32 hash (skip zero) : 654FC025 AccurateRip v1 signature : CCA87ECF AccurateRip v2 signature : FD74F2D4 ->Accurately ripped (v2, confidence 1/1) Statistics Read error : 0 Jitter error (maybe fixed) : 0 Retry sector count : 0 Damaged sector count : 0

Track 20 Filename : /Volumes/My Book/Music/Nathan Johnson/Looper (Limited Edition)/20 Withdrawals.flac Pre-gap length : 00:02:00

Track gain : -5.47 dB Peak : 0.945251 CRC32 hash (test run) : DAD5DBD2 CRC32 hash : DAD5DBD2 CRC32 hash (skip zero) : 2E8CF515 AccurateRip v1 signature : 7A17B8D7 AccurateRip v2 signature : 7E6C3668 ->Accurately ripped (v2, confidence 1/1) Statistics Read error : 0 Jitter error (maybe fixed) : 0 Retry sector count : 0 Damaged sector count : 0

Track 21 Filename : /Volumes/My Book/Music/Nathan Johnson/Looper (Limited Edition)/21 Closing Your Loop (Film Mix).flac

Track gain : -6.36 dB Peak : 0.991150 CRC32 hash (test run) : FFA9C150 CRC32 hash : FFA9C150 CRC32 hash (skip zero) : 77DD64A3 AccurateRip v1 signature : 3B34F8E8 AccurateRip v2 signature : AE89930C ->Accurately ripped (v2, confidence 1/1) Statistics Read error : 0 Jitter error (maybe fixed) : 0 Retry sector count : 0 Damaged sector count : 0

Track 22 Filename : /Volumes/My Book/Music/Nathan Johnson/Looper (Limited Edition)/22 Hobo Attack.flac

Track gain : -3.23 dB Peak : 0.984161 CRC32 hash (test run) : BFA66D08 CRC32 hash : BFA66D08 CRC32 hash (skip zero) : F8B752F1 AccurateRip v1 signature : 8218D8AE AccurateRip v2 signature : 5AE4F308 ->Accurately ripped (v2, confidence 1/1) Statistics Read error : 0 Jitter error (maybe fixed) : 0 Retry sector count : 0 Damaged sector count : 0

Track 23 Filename : /Volumes/My Book/Music/Nathan Johnson/Looper (Limited Edition)/23 Thirty-Two.flac

Track gain : -3.91 dB Peak : 0.990021 CRC32 hash (test run) : 5ABFAE6B CRC32 hash : 5ABFAE6B CRC32 hash (skip zero) : 608401EF AccurateRip v1 signature : FCED4C36 AccurateRip v2 signature : 40E75CBB ->Accurately ripped (v2, confidence 1/1) Statistics Read error : 0 Jitter error (maybe fixed) : 0 Retry sector count : 0 Damaged sector count : 0

Track 24 Filename : /Volumes/My Book/Music/Nathan Johnson/Looper (Limited Edition)/24 Run (Film Mix).flac

Track gain : -4.89 dB Peak : 0.991180 CRC32 hash (test run) : 9249C121 CRC32 hash : 9249C121 CRC32 hash (skip zero) : B5827237 AccurateRip v1 signature : A9D6D4FA AccurateRip v2 signature : 1D292BC7 ->Accurately ripped (v2, confidence 1/1) Statistics Read error : 0 Jitter error (maybe fixed) : 0 Retry sector count : 0 Damaged sector count : 0

Track 25 Filename : /Volumes/My Book/Music/Nathan Johnson/Looper (Limited Edition)/25 City Sweep (Film Mix).flac

Track gain : -4.39 dB Peak : 0.990906 CRC32 hash (test run) : 4276D474 CRC32 hash : 4276D474 CRC32 hash (skip zero) : 2B32BEAF AccurateRip v1 signature : F0CF76D5 AccurateRip v2 signature : 52089724 ->Accurately ripped (v2, confidence 1/1) Statistics Read error : 0 Jitter error (maybe fixed) : 0 Retry sector count : 0 Damaged sector count : 0

Track 26 Filename : /Volumes/My Book/Music/Nathan Johnson/Looper (Limited Edition)/26 Theme From Looper (Solo Piano Version).flac

Track gain : -0.60 dB Peak : 0.941040 CRC32 hash (test run) : 4E77D2E9 CRC32 hash : 4E77D2E9 CRC32 hash (skip zero) : 1074F6E7 AccurateRip v1 signature : 96417272 AccurateRip v2 signature : 6BA764F3 ->Accurately ripped (v2, confidence 1/1) Statistics Read error : 0 Jitter error (maybe fixed) : 0 Retry sector count : 0 Damaged sector count : 0

No errors occurred

End of status report
TITLE "Looper (Limited Edition)"PERFORMER "Nathan Johnson"REM GENRE "Soundtrack"REM DATE "2012"REM DISCNUMBER 1REM TOTALDISCS 1REM DISCID 5E0F1D1AREM REPLAYGAIN_ALBUM_GAIN -4.03 dBREM REPLAYGAIN_ALBUM_PEAK 1.000000FILE "01 A Body That Technically Does Not Exist.flac" WAVE TRACK 01 AUDIO TITLE "A Body That Technically Does Not Exist" SONGWRITER "Nathan Johnson" ISRC GB6LT1210325 REM REPLAYGAIN_TRACK_GAIN -0.67 dB REM REPLAYGAIN_TRACK_PEAK 0.991272 INDEX 01 00:00:00FILE "02 A Day In The Life.flac" WAVE TRACK 02 AUDIO TITLE "A Day In The Life" SONGWRITER "Nathan Johnson" ISRC GB6LT1210326 REM REPLAYGAIN_TRACK_GAIN -4.59 dB REM REPLAYGAIN_TRACK_PEAK 0.991058 INDEX 01 00:00:00FILE "03 Closing Your Loop.flac" WAVE TRACK 03 AUDIO TITLE "Closing Your Loop" SONGWRITER "Nathan Johnson" ISRC GB6LT1210327 REM REPLAYGAIN_TRACK_GAIN -3.73 dB REM REPLAYGAIN_TRACK_PEAK 0.991089 INDEX 01 00:00:00FILE "04 Seth's Tale.flac" WAVE TRACK 04 AUDIO TITLE "Seth's Tale" SONGWRITER "Nathan Johnson" ISRC GB6LT1210328 REM REPLAYGAIN_TRACK_GAIN -4.41 dB REM REPLAYGAIN_TRACK_PEAK 1.000000 INDEX 01 00:00:00FILE "05 Run.flac" WAVE TRACK 05 AUDIO TITLE "Run" SONGWRITER "Nathan Johnson" ISRC GB6LT1210329 REM REPLAYGAIN_TRACK_GAIN -4.87 dB REM REPLAYGAIN_TRACK_PEAK 0.990906 INDEX 01 00:00:00FILE "06 A Life In A Day.flac" WAVE TRACK 06 AUDIO TITLE "A Life In A Day" SONGWRITER "Nathan Johnson" ISRC GB6LT1210330 REM REPLAYGAIN_TRACK_GAIN -3.09 dB REM REPLAYGAIN_TRACK_PEAK 0.991180 INDEX 01 00:00:00FILE "07 Time Machine.flac" WAVE TRACK 07 AUDIO TITLE "Time Machine" SONGWRITER "Nathan Johnson" ISRC GB6LT1210331 REM REPLAYGAIN_TRACK_GAIN -5.02 dB REM REPLAYGAIN_TRACK_PEAK 0.991119 INDEX 01 00:00:00FILE "08 Hunting The Past.flac" WAVE TRACK 08 AUDIO TITLE "Hunting The Past" SONGWRITER "Nathan Johnson" ISRC GB6LT1210332 REM REPLAYGAIN_TRACK_GAIN -3.99 dB REM REPLAYGAIN_TRACK_PEAK 0.991119 INDEX 01 00:00:00FILE "09 Following The Loop.flac" WAVE TRACK 09 AUDIO TITLE "Following The Loop" SONGWRITER "Nathan Johnson" ISRC GB6LT1210333 REM REPLAYGAIN_TRACK_GAIN -3.53 dB REM REPLAYGAIN_TRACK_PEAK 0.991058 INDEX 01 00:00:00FILE "10 Mining For Memories.flac" WAVE TRACK 10 AUDIO TITLE "Mining For Memories" SONGWRITER "Nathan Johnson" ISRC GB6LT1210334 REM REPLAYGAIN_TRACK_GAIN -2.61 dB REM REPLAYGAIN_TRACK_PEAK 0.991028 INDEX 01 00:00:00FILE "11 A New Scar.flac" WAVE TRACK 11 AUDIO TITLE "A New Scar" SONGWRITER "Nathan Johnson" ISRC GB6LT1210335 REM REPLAYGAIN_TRACK_GAIN -1.45 dB REM REPLAYGAIN_TRACK_PEAK 0.990967 INDEX 01 00:00:00FILE "12 Her Face.flac" WAVE TRACK 12 AUDIO TITLE "Her Face" SONGWRITER "Nathan Johnson" ISRC GB6LT1210336 REM REPLAYGAIN_TRACK_GAIN -2.51 dB REM REPLAYGAIN_TRACK_PEAK 0.967224 INDEX 01 00:00:00FILE "13 City Sweep.flac" WAVE TRACK 13 AUDIO TITLE "City Sweep" SONGWRITER "Nathan Johnson" ISRC GB6LT1210337 REM REPLAYGAIN_TRACK_GAIN -4.97 dB REM REPLAYGAIN_TRACK_PEAK 0.991089 INDEX 01 00:00:00FILE "14 Revelations.flac" WAVE TRACK 14 AUDIO TITLE "Revelations" SONGWRITER "Nathan Johnson" ISRC GB6LT1210338 REM REPLAYGAIN_TRACK_GAIN -3.87 dB REM REPLAYGAIN_TRACK_PEAK 1.000000 INDEX 01 00:00:00FILE "15 The Rainmaker.flac" WAVE TRACK 15 AUDIO TITLE "The Rainmaker" SONGWRITER "Nathan Johnson" ISRC GB6LT1210339 REM REPLAYGAIN_TRACK_GAIN -0.22 dB REM REPLAYGAIN_TRACK_PEAK 1.000000 INDEX 01 00:00:00FILE "16 La Belle Aurore.flac" WAVE TRACK 16 AUDIO TITLE "La Belle Aurore" SONGWRITER "Nathan Johnson" ISRC GB6LT1210340 REM REPLAYGAIN_TRACK_GAIN -4.57 dB REM REPLAYGAIN_TRACK_PEAK 0.990906 INDEX 01 00:00:00FILE "17 Showdown.flac" WAVE TRACK 17 AUDIO TITLE "Showdown" SONGWRITER "Nathan Johnson" ISRC GB6LT1210341 REM REPLAYGAIN_TRACK_GAIN -7.19 dB REM REPLAYGAIN_TRACK_PEAK 0.991211 INDEX 01 00:00:00FILE "18 The Path Was A Circle.flac" WAVE TRACK 18 AUDIO TITLE "The Path Was A Circle" SONGWRITER "Nathan Johnson" ISRC GB6LT1210342 REM REPLAYGAIN_TRACK_GAIN -3.28 dB REM REPLAYGAIN_TRACK_PEAK 0.991150 INDEX 01 00:00:00FILE "19 Everything Comes Around.flac" WAVE TRACK 19 AUDIO TITLE "Everything Comes Around" SONGWRITER "Nathan Johnson" ISRC GB6LT1210343 REM REPLAYGAIN_TRACK_GAIN -5.89 dB REM REPLAYGAIN_TRACK_PEAK 1.000000 INDEX 01 00:00:00 TRACK 20 AUDIO TITLE "Withdrawals" SONGWRITER "Nathan Johnson" ISRC GB6LT1210344 REM COMMENT "Bonus Track" REM REPLAYGAIN_TRACK_GAIN -5.47 dB REM REPLAYGAIN_TRACK_PEAK 0.945251 INDEX 00 02:38:72FILE "20 Withdrawals.flac" WAVE INDEX 01 00:00:00FILE "21 Closing Your Loop (Film Mix).flac" WAVE TRACK 21 AUDIO TITLE "Closing Your Loop (Film Mix)" SONGWRITER "Nathan Johnson" ISRC GB6LT1210345 REM COMMENT "Bonus Track" REM REPLAYGAIN_TRACK_GAIN -6.36 dB REM REPLAYGAIN_TRACK_PEAK 0.991150 INDEX 01 00:00:00FILE "22 Hobo Attack.flac" WAVE TRACK 22 AUDIO TITLE "Hobo Attack" SONGWRITER "Nathan Johnson" ISRC GB6LT1210346 REM COMMENT "Bonus Track" REM REPLAYGAIN_TRACK_GAIN -3.23 dB REM REPLAYGAIN_TRACK_PEAK 0.984161 INDEX 01 00:00:00FILE "23 Thirty-Two.flac" WAVE TRACK 23 AUDIO TITLE "Thirty-Two" SONGWRITER "Nathan Johnson" ISRC GB6LT1210347 REM COMMENT "Bonus Track" REM REPLAYGAIN_TRACK_GAIN -3.91 dB REM REPLAYGAIN_TRACK_PEAK 0.990021 INDEX 01 00:00:00FILE "24 Run (Film Mix).flac" WAVE TRACK 24 AUDIO TITLE "Run (Film Mix)" SONGWRITER "Nathan Johnson" ISRC GB6LT1210348 REM COMMENT "Bonus Track" REM REPLAYGAIN_TRACK_GAIN -4.89 dB REM REPLAYGAIN_TRACK_PEAK 0.991180 INDEX 01 00:00:00FILE "25 City Sweep (Film Mix).flac" WAVE TRACK 25 AUDIO TITLE "City Sweep (Film Mix)" SONGWRITER "Nathan Johnson" ISRC GB6LT1210349 REM COMMENT "Bonus Track" REM REPLAYGAIN_TRACK_GAIN -4.39 dB REM REPLAYGAIN_TRACK_PEAK 0.990906 INDEX 01 00:00:00FILE "26 Theme From Looper (Solo Piano Version).flac" WAVE TRACK 26 AUDIO TITLE "Theme From Looper (Solo Piano Version)" SONGWRITER "Nathan Johnson" ISRC GB6LT1210350 REM COMMENT "Bonus Track" REM REPLAYGAIN_TRACK_GAIN -0.60 dB REM REPLAYGAIN_TRACK_PEAK 0.941040 INDEX 01 00:00:00
-----------------------

DON'T MODIFY THIS FILE

-----------------------

PERFORMER: auCDtect Task Manager, ver. 1.5.1RC6 build 1.5.1.7Copyright (c) 2008-2010 y-soft. All rights reservedhttp://y-soft.org

ANALYZER: auCDtect: CD records authenticity detector, version 0.8.2Copyright (c) 2004 Oleg Berngardt. All rights reserved.Copyright (c) 2004 Alexander Djourik. All rights reserved.

FILE: 01 A Body That Technically Does Not Exist.flac Size: 6583981 Hash: D58DECD94D99AA2A64FA5AF949A50002 Accuracy: -m0 Conclusion: CDDA 100% Signature: F4D0F7E9E6F75905A2211154547DB2A7346C0F1BFILE: 02 A Day In The Life.flac Size: 6844992 Hash: 115685206384D46C5046490A9EFDA26B Accuracy: -m0 Conclusion: CDDA 100% Signature: 39046CBA5A4E1190D8015E3E3567C7C82D0AE2A4FILE: 03 Closing Your Loop.flac Size: 14708606 Hash: 3E994965DE4BC0E767905EB6706431A1 Accuracy: -m0 Conclusion: CDDA 100% Signature: 3331747A0215DD584300DA5114B2F57F79FF0CC4FILE: 04 Seth's Tale.flac Size: 12988005 Hash: FA3F8E57685AB3476E5628CE7F04D8AF Accuracy: -m0 Conclusion: CDDA 100% Signature: AAEA037B1DD58E6FEC2801A343E01223545ABF66FILE: 05 Run.flac Size: 15551285 Hash: 895E689384A0D1B678A9F2B4F78090BA Accuracy: -m0 Conclusion: CDDA 100% Signature: F9E8FA33DB55B96A3836D8F65D6061162B33D570FILE: 06 A Life In A Day.flac Size: 11968623 Hash: 3CA289563A9F9EA01A7BAA23E6E3485D Accuracy: -m0 Conclusion: CDDA 100% Signature: 2546ACC16C6E102F8546667DCA3F9227BE2D18C3FILE: 07 Time Machine.flac Size: 13824717 Hash: FDC23250F2437D7895143FE75E5CC96C Accuracy: -m0 Conclusion: CDDA 99% Signature: 69DB6C788284A2A24752C8A3537795DAD26BDED3FILE: 08 Hunting The Past.flac Size: 15195522 Hash: 11B46E92437E723AD4E7F0A8CAC378CD Accuracy: -m0 Conclusion: CDDA 100% Signature: 23EF18BE709BDEDC33AF23A22BF48FD4271EFC80FILE: 09 Following The Loop.flac Size: 9390256 Hash: D11567CA3C701BE6C4682F0DA8EB9625 Accuracy: -m0 Conclusion: CDDA 100% Signature: 455F1C8CA19D43FBEDA05459DDD3A4519B64C59EFILE: 10 Mining For Memories.flac Size: 10080006 Hash: 08F290E9A80975B6D22DF501A8B304C4 Accuracy: -m0 Conclusion: CDDA 87% Signature: 624BFF0448645E9A63EDDED73D4754E387139A9EFILE: 11 A New Scar.flac Size: 12018762 Hash: 3DE3CD8C56DA218B11CBB4154893609E Accuracy: -m0 Conclusion: CDDA 43% Signature: 705E01043AC28B75882DA9B9B8CBA8A9D8CDCF8BFILE: 12 Her Face.flac Size: 12780699 Hash: C415CDA0AFBCCB344642105B42A82F2C Accuracy: -m0 Conclusion: CDDA 100% Signature: 3D0CFACA1B4B6E87B8210E09EBC262A7D0250783FILE: 13 City Sweep.flac Size: 4550571 Hash: 7605A2D1AC79478D233BFC694048B345 Accuracy: -m0 Conclusion: CDDA 100% Signature: 1F5CA14EE6DEBA81964CFDFC4EF8566E5F62D833FILE: 14 Revelations.flac Size: 24357032 Hash: 9913E78E32D7B48D929C86CE4F4DF8A4 Accuracy: -m0 Conclusion: CDDA 100% Signature: 204723653EB0B0E89E03F3266DB3D1174CFD1DEBFILE: 15 The Rainmaker.flac Size: 20794628 Hash: F58ECED3E04BF0AE2056B113FF22CF56 Accuracy: -m0 Conclusion: CDDA 100% Signature: 53607075FF5ADD6342BB96D8A1FD07DBE427E5D3FILE: 16 La Belle Aurore.flac Size: 5435603 Hash: E4197869D2EB0CA2950CFE8932AD90F1 Accuracy: -m0 Conclusion: CDDA 100% Signature: FF78C3914CCBEAD03F404F2CEA5432D17D24E017FILE: 17 Showdown.flac Size: 8143926 Hash: 65FB5B258CB62FB80A8CD63A3CD079B1 Accuracy: -m0 Conclusion: CDDA 100% Signature: 66D81D79A0489B6A2D5AEDEF34174F758A20F129FILE: 18 The Path Was A Circle.flac Size: 22422070 Hash: E6101A25EA4947DFBD722E86BE105C6A Accuracy: -m0 Conclusion: CDDA 100% Signature: 8007FEF8E7A8144F642BE44BB2E3BEC46B9FB08DFILE: 19 Everything Comes Around.flac Size: 12976178 Hash: D461901B774D6781F7C9C91CB708F5DA Accuracy: -m0 Conclusion: CDDA 94% Signature: 56FA547C1F376058AC9FB62F28B76E3A9AC15F11FILE: 20 Withdrawals.flac Size: 3001662 Hash: 3C9E52BFF9BADAF72E06EFBAA9A02FBB Accuracy: -m0 Conclusion: CDDA 100% Signature: B3D639537257CFEFB02143635B3E1E1C29014042FILE: 21 Closing Your Loop (Film Mix).flac Size: 13437639 Hash: F7BAFD608614C50C4627285C6BF274F6 Accuracy: -m0 Conclusion: CDDA 100% Signature: 2DCCD862409E7C5710BACAEC4758DD82717A5D74FILE: 22 Hobo Attack.flac Size: 8812232 Hash: 3C251F4554048C69C38E4CD0F0379F11 Accuracy: -m0 Conclusion: CDDA 100% Signature: 68F35769ED8EB8567C8F169573E0A7FFD75CBF06FILE: 23 Thirty-Two.flac Size: 6222634 Hash: 9FC9E7FC6D73E744F65EA65C1CD865D8 Accuracy: -m0 Conclusion: CDDA 85% Signature: 4858FFFDDC7C9B202CD5FD40A0CC06835765AE79FILE: 24 Run (Film Mix).flac Size: 15829814 Hash: D31D738C2F1DAD0E8C3FA5E92CD91CDF Accuracy: -m0 Conclusion: CDDA 100% Signature: 9553725AF5C36765F1659C3EE3E498FA1F522370FILE: 25 City Sweep (Film Mix).flac Size: 6488820 Hash: 89DD55D48729127020029F8FA5E170C7 Accuracy: -m0 Conclusion: CDDA 100% Signature: 9AC46639F076687E22C9E8E4E88B840684B1ADE2FILE: 26 Theme From Looper (Solo Piano Version).flac Size: 20315025 Hash: 61473E08CA8C6B85A0E442C5213A1C03 Accuracy: -m0 Conclusion: CDDA 100% Signature: 224118DEBF489421E1FD4389F8D32DFEAB9462A3


Трекер:  [ 12-Июн-2013 16:40 ]

  

Скачать .torrent

Размер .torrent файла 14 KB


Размер: 301 MB
Хэш (hash) релиза: e6c6d3778484a2a6edc8b08abf40ce2c58aab690

bot

Топик был перенесен в форум Саундтреки к фильмам и мультфильмам (lossless)

Перенес Galfimbul

Хотите добавить комментарий к записи скачать торрент Петля времени Looper

!Обратная связь