Скачать через торрент музыку Такси 4 Taxi 4 - 2007, FLAC бесплатно без регистрации torrent

Если у вас наблюдаются проблемы со скриншотами, переходом по ссылками, скачиванием торрентов - проблемы в блокировщике рекламы AdBlock. #хорошегоДня!


Статистика раздачи
Размер:  570 MB   |    Зарегистрирован:  4 года 3 месяца   |    .torrent скачан:  31 раз   |   
Раздают:  1   Качают:  1  
   
Загрузка...
 
Автор Сообщение

Galfimbul

avatar Galfimbul


Такси 4 - Taxi 4

Жанр: Soundtrack
Год выпуска диска: 2007
Страна-производитель диска: Japan
Издатель (лейбл): Warner
Номер по каталогу: WPCR-12699
Аудиокодек: FLAC (*.flac)
Тип рипа: tracks+.cue
Битрейт аудио: lossless
Продолжительность: 01:17:54
Источник: собственный рип
Наличие сканов в содержимом раздачи: нет
Треклист:
01. Black Eyed Peas - Pump It (3:35)
02. Sniper - Quoi Qu'il Arrive (3:45)
03. Kery James feat. Anissa Stili - Symphonie D'Amour (5:43)
04. Melissa feat. Akhenaton - Avec Tout Mon Amour (3:38)
05. J-Mi Sissoko feat. Lino - Ghetto (4:16)
06. Bakar - Etre Un Homme (3:05)
07. Shy'm - Victoire (Remix) (3:26)
08. El Matador - Génération Taxi (3:41)
09. Tunisiano - Rien À Foutre (3:58)
10. Saïan Supa Crew - Met Les Gaz (4:15)
11. K-Reen feat. Ol Kainry - Anticonformiste (3:56)
12. Medine - Les Contraires (4:57)
13. Mafia K'1 Fry - On Vous Gene... (5:00)
14. Melissa feat. Khaled - Benthi (4:43)
15. Taïro feat. Diam's - Qui On Appelle?? (3:11)
16. Sir Samuel - Frérot (4:29)
17. Akil - Nahreg Alik (3:47)
18. Sinik - Ennemi D'État (4:34)
19. Nessbeal feat. K-Reen - Légende D'Hiver (3:55)
Exact Audio Copy V1.0 beta 3 from 29. August 2011

Отчёт EAC об извлечении, выполненном 16. февраля 2013, 19:35

Various / Taxi 4 OST

Дисковод: ATAPI DVD A DH20A3H Adapter: 1 ID: 1

Режим чтения : ДостоверностьИспользование точного потока : ДаОтключение кэша аудио : ДаИспользование указателей C2 : Нет

Коррекция смещения при чтении : 6Способность читать области Lead-in и Lead-out : НетЗаполнение пропущенных сэмплов тишиной : ДаУдаление блоков с тишиной в начале и конце : НетПри вычислениях CRC использовались нулевые сэмплы : ДаИнтерфейс : Встроенный Win32-интерфейс для Win NT/2000Обработка зазоров : Добавлено к предыдущему треку

Выходной формат : Пользовательский кодировщикВыбранный битрейт : 1024 kBit/sКачество : ВысокийДобавление ID3-тега : НетУтилита сжатия : C:\Program Files\Exact Audio Copy\Flac\flac.exeДополнительные параметры : -V -8 -T "Genre=%genre%" -T "Artist=%artist%" -T "Title=%title%" -T "Album=%albumtitle%" -T "Date=%year%" -T "Tracknumber=%tracknr%" -T "Comment=%comment%" %source%

TOC извлечённого CD

Трек | Старт | Длительность | Начальный сектор | Конечный сектор --------------------------------------------------------------------- 1 | 0:00.00 | 3:35.24 | 0 | 16148 2 | 3:35.24 | 3:44.48 | 16149 | 32996 3 | 7:19.72 | 5:43.10 | 32997 | 58731 4 | 13:03.07 | 3:38.10 | 58732 | 75091 5 | 16:41.17 | 4:15.46 | 75092 | 94262 6 | 20:56.63 | 3:04.58 | 94263 | 108120 7 | 24:01.46 | 3:25.55 | 108121 | 123550 8 | 27:27.26 | 3:41.01 | 123551 | 140126 9 | 31:08.27 | 3:58.16 | 140127 | 157992 10 | 35:06.43 | 4:15.06 | 157993 | 177123 11 | 39:21.49 | 3:56.12 | 177124 | 194835 12 | 43:17.61 | 4:56.38 | 194836 | 217073 13 | 48:14.24 | 4:59.55 | 217074 | 239553 14 | 53:14.04 | 4:42.74 | 239554 | 260777 15 | 57:57.03 | 3:11.27 | 260778 | 275129 16 | 61:08.30 | 4:28.53 | 275130 | 295282 17 | 65:37.08 | 3:47.17 | 295283 | 312324 18 | 69:24.25 | 4:33.65 | 312325 | 332864 19 | 73:58.15 | 3:55.17 | 332865 | 350506

Трек 1

Имя файла C:\Documents and Settings\LP_Masta\Мои документы\Раздачи для торрентс.ру\Soundtracks\T4xi (La Bande Originale Du Film)\01 - Black Eyed Peas - Pump It.wav

Длина предзазора 0:00:02.00

Пиковый уровень 94.0 % Скорость извлечения 3.8 X Качество трека 100.0 % CRC теста BBF40520 CRC копии BBF40520 Трек не обнаружен в базе AccurateRip Копирование... OK

Трек 2

Имя файла C:\Documents and Settings\LP_Masta\Мои документы\Раздачи для торрентс.ру\Soundtracks\T4xi (La Bande Originale Du Film)\02 - Sniper - Quoi Qu'il Arrive.wav

Длина предзазора 0:00:01.44

Пиковый уровень 100.0 % Скорость извлечения 4.1 X Качество трека 100.0 % CRC теста 908F1077 CRC копии 908F1077 Трек не обнаружен в базе AccurateRip Копирование... OK

Трек 3

Имя файла C:\Documents and Settings\LP_Masta\Мои документы\Раздачи для торрентс.ру\Soundtracks\T4xi (La Bande Originale Du Film)\03 - Kery James feat. Anissa Stili - Symphonie D'Amour.wav

Пиковый уровень 100.0 % Скорость извлечения 4.8 X Качество трека 100.0 % CRC теста 31B61F02 CRC копии 31B61F02 Трек не обнаружен в базе AccurateRip Копирование... OK

Трек 4

Имя файла C:\Documents and Settings\LP_Masta\Мои документы\Раздачи для торрентс.ру\Soundtracks\T4xi (La Bande Originale Du Film)\04 - Melissa feat. Akhenaton - Avec Tout Mon Amour.wav

Длина предзазора 0:00:01.15

Пиковый уровень 100.0 % Скорость извлечения 4.2 X Качество трека 99.9 % CRC теста 13D1F5B5 CRC копии 13D1F5B5 Трек не обнаружен в базе AccurateRip Копирование... OK

Трек 5

Имя файла C:\Documents and Settings\LP_Masta\Мои документы\Раздачи для торрентс.ру\Soundtracks\T4xi (La Bande Originale Du Film)\05 - J-Mi Sissoko feat. Lino - Ghetto.wav

Пиковый уровень 100.0 % Скорость извлечения 4.6 X Качество трека 99.9 % CRC теста C3E97725 CRC копии C3E97725 Трек не обнаружен в базе AccurateRip Копирование... OK

Трек 6

Имя файла C:\Documents and Settings\LP_Masta\Мои документы\Раздачи для торрентс.ру\Soundtracks\T4xi (La Bande Originale Du Film)\06 - Bakar - Etre Un Homme.wav

Пиковый уровень 100.0 % Скорость извлечения 5.2 X Качество трека 100.0 % CRC теста 96756161 CRC копии 96756161 Трек не обнаружен в базе AccurateRip Копирование... OK

Трек 7

Имя файла C:\Documents and Settings\LP_Masta\Мои документы\Раздачи для торрентс.ру\Soundtracks\T4xi (La Bande Originale Du Film)\07 - Shy'm - Victoire (Remix).wav

Пиковый уровень 99.9 % Скорость извлечения 5.5 X Качество трека 100.0 % CRC теста DA9DE4CD CRC копии DA9DE4CD Трек не обнаружен в базе AccurateRip Копирование... OK

Трек 8

Имя файла C:\Documents and Settings\LP_Masta\Мои документы\Раздачи для торрентс.ру\Soundtracks\T4xi (La Bande Originale Du Film)\08 - El Matador - Génération Taxi.wav

Пиковый уровень 100.0 % Скорость извлечения 5.7 X Качество трека 100.0 % CRC теста 001EA043 CRC копии 001EA043 Трек не обнаружен в базе AccurateRip Копирование... OK

Трек 9

Имя файла C:\Documents and Settings\LP_Masta\Мои документы\Раздачи для торрентс.ру\Soundtracks\T4xi (La Bande Originale Du Film)\09 - Tunisiano - Rien À Foutre.wav

Длина предзазора 0:00:01.00

Пиковый уровень 100.0 % Скорость извлечения 6.1 X Качество трека 100.0 % CRC теста 122DBF64 CRC копии 122DBF64 Трек не обнаружен в базе AccurateRip Копирование... OK

Трек 10

Имя файла C:\Documents and Settings\LP_Masta\Мои документы\Раздачи для торрентс.ру\Soundtracks\T4xi (La Bande Originale Du Film)\10 - Saïan Supa Crew - Met Les Gaz.wav

Пиковый уровень 100.0 % Скорость извлечения 6.3 X Качество трека 100.0 % CRC теста 94339F8F CRC копии 94339F8F Трек не обнаружен в базе AccurateRip Копирование... OK

Трек 11

Имя файла C:\Documents and Settings\LP_Masta\Мои документы\Раздачи для торрентс.ру\Soundtracks\T4xi (La Bande Originale Du Film)\11 - K-Reen feat. Ol Kainry - Anticonformiste.wav

Пиковый уровень 100.0 % Скорость извлечения 6.4 X Качество трека 100.0 % CRC теста AD66924D CRC копии AD66924D Трек не обнаружен в базе AccurateRip Копирование... OK

Трек 12

Имя файла C:\Documents and Settings\LP_Masta\Мои документы\Раздачи для торрентс.ру\Soundtracks\T4xi (La Bande Originale Du Film)\12 - Medine - Les Contraires.wav

Пиковый уровень 100.0 % Скорость извлечения 6.8 X Качество трека 100.0 % CRC теста E2D5636D CRC копии E2D5636D Трек не обнаружен в базе AccurateRip Копирование... OK

Трек 13

Имя файла C:\Documents and Settings\LP_Masta\Мои документы\Раздачи для торрентс.ру\Soundtracks\T4xi (La Bande Originale Du Film)\13 - Mafia K'1 Fry - On Vous Gene....wav

Пиковый уровень 100.0 % Скорость извлечения 7.1 X Качество трека 100.0 % CRC теста 0273149F CRC копии 0273149F Трек не обнаружен в базе AccurateRip Копирование... OK

Трек 14

Имя файла C:\Documents and Settings\LP_Masta\Мои документы\Раздачи для торрентс.ру\Soundtracks\T4xi (La Bande Originale Du Film)\14 - Melissa feat. Khaled - Benthi.wav

Длина предзазора 0:00:02.53

Пиковый уровень 100.0 % Скорость извлечения 7.3 X Качество трека 100.0 % CRC теста 2F56091C CRC копии 2F56091C Трек не обнаружен в базе AccurateRip Копирование... OK

Трек 15

Имя файла C:\Documents and Settings\LP_Masta\Мои документы\Раздачи для торрентс.ру\Soundtracks\T4xi (La Bande Originale Du Film)\15 - Taïro feat. Diam's - Qui On Appelle.wav

Длина предзазора 0:00:01.19

Пиковый уровень 100.0 % Скорость извлечения 7.0 X Качество трека 100.0 % CRC теста F10B6265 CRC копии F10B6265 Трек не обнаружен в базе AccurateRip Копирование... OK

Трек 16

Имя файла C:\Documents and Settings\LP_Masta\Мои документы\Раздачи для торрентс.ру\Soundtracks\T4xi (La Bande Originale Du Film)\16 - Sir Samuel - Frérot.wav

Пиковый уровень 100.0 % Скорость извлечения 7.5 X Качество трека 100.0 % CRC теста 21B8C46C CRC копии 21B8C46C Трек не обнаружен в базе AccurateRip Копирование... OK

Трек 17

Имя файла C:\Documents and Settings\LP_Masta\Мои документы\Раздачи для торрентс.ру\Soundtracks\T4xi (La Bande Originale Du Film)\17 - Akil - Nahreg Alik.wav

Пиковый уровень 96.2 % Скорость извлечения 7.6 X Качество трека 100.0 % CRC теста 74D4E716 CRC копии 74D4E716 Трек не обнаружен в базе AccurateRip Копирование... OK

Трек 18

Имя файла C:\Documents and Settings\LP_Masta\Мои документы\Раздачи для торрентс.ру\Soundtracks\T4xi (La Bande Originale Du Film)\18 - Sinik - Ennemi D'État.wav

Длина предзазора 0:00:01.00

Пиковый уровень 100.0 % Скорость извлечения 7.1 X Качество трека 99.9 % CRC теста 65DDDCF7 CRC копии 65DDDCF7 Трек не обнаружен в базе AccurateRip Копирование... OK

Трек 19

Имя файла C:\Documents and Settings\LP_Masta\Мои документы\Раздачи для торрентс.ру\Soundtracks\T4xi (La Bande Originale Du Film)\19 - Nessbeal feat. K-Reen - Légende D'Hiver.wav

Пиковый уровень 100.0 % Скорость извлечения 7.9 X Качество трека 100.0 % CRC теста C6E31CED CRC копии C6E31CED Трек не обнаружен в базе AccurateRip Копирование... OK

Ни одного трека нет в базе AccurateRip

Ошибок не произошло

Конец отчёта

---- CUETools DB Plugin V2.1.3

[CTDB TOCID: QJkH_cQUhFP_Iu8O0ICjksradMM-] disk not present in database, Submit result: QJkH_cQUhFP_Iu8O0ICjksradMM- has been uploaded

==== Контрольная сумма отчёта E558CDC0BA21B7935318D8963B6F8DF20EDF600D70F000EF23B6E4FA39E58D39 ====
REM GENRE Hip-HopREM DATE 2007REM DISCID 28124113REM COMMENT "ExactAudioCopy v1.0b3"CATALOG 4943674073078PERFORMER "Various"TITLE "Taxi 4 OST"FILE "01 - Black Eyed Peas - Pump It.wav" WAVE TRACK 01 AUDIO TITLE "Pump It" PERFORMER "Black Eyed Peas" ISRC H2@n10500407 INDEX 01 00:00:00 TRACK 02 AUDIO TITLE "Quoi Qu'il Arrive" PERFORMER "Sniper" ISRC FQH6G0700004 INDEX 00 03:33:55FILE "02 - Sniper - Quoi Qu'il Arrive.wav" WAVE INDEX 01 00:00:00FILE "03 - Kery James feat. Anissa Stili - Symphonie D'Amour.wav" WAVE TRACK 03 AUDIO TITLE "Symphonie D'Amour" PERFORMER "Kery James feat. Anissa Stili" ISRC FQH6G0700009 INDEX 01 00:00:00 TRACK 04 AUDIO TITLE "Avec Tout Mon Amour" PERFORMER "Melissa feat. Akhenaton" ISRC FQD2W0601295 INDEX 00 05:41:70FILE "04 - Melissa feat. Akhenaton - Avec Tout Mon Amour.wav" WAVE INDEX 01 00:00:00FILE "05 - J-Mi Sissoko feat. Lino - Ghetto.wav" WAVE TRACK 05 AUDIO TITLE "Ghetto" PERFORMER "J-Mi Sissoko feat. Lino" ISRC FQD2W0601295 INDEX 01 00:00:00FILE "06 - Bakar - Etre Un Homme.wav" WAVE TRACK 06 AUDIO TITLE "Etre Un Homme" PERFORMER "Bakar" ISRC FQH6G0700016 INDEX 01 00:00:00FILE "07 - Shy'm - Victoire (Remix).wav" WAVE TRACK 07 AUDIO TITLE "Victoire (Remix)" PERFORMER "Shy'm" ISRC FQD2W0601271 INDEX 01 00:00:00FILE "08 - El Matador - Generation Taxi.wav" WAVE TRACK 08 AUDIO TITLE "Generation Taxi" PERFORMER "El Matador" ISRC FQH6G0700021 INDEX 01 00:00:00 TRACK 09 AUDIO TITLE "Rien A Foutre" PERFORMER "Tunisiano" ISRC FQH6G0700005 INDEX 00 03:40:01FILE "09 - Tunisiano - Rien A Foutre.wav" WAVE INDEX 01 00:00:00FILE "10 - Saian Supa Crew - Met Les Gaz.wav" WAVE TRACK 10 AUDIO TITLE "Met Les Gaz" PERFORMER "Saian Supa Crew" ISRC FQH6G0700012 INDEX 01 00:00:00FILE "11 - K-Reen feat. Ol Kainry - Anticonformiste.wav" WAVE TRACK 11 AUDIO TITLE "Anticonformiste" PERFORMER "K-Reen feat. Ol Kainry" ISRC FQH6G0700012 INDEX 01 00:00:00FILE "12 - Medine - Les Contraires.wav" WAVE TRACK 12 AUDIO TITLE "Les Contraires" PERFORMER "Medine" ISRC FQH6G0700014 INDEX 01 00:00:00FILE "13 - Mafia K'1 Fry - On Vous Gene....wav" WAVE TRACK 13 AUDIO TITLE "On Vous Gene..." PERFORMER "Mafia K'1 Fry" ISRC FQH6G0700014 INDEX 01 00:00:00 TRACK 14 AUDIO TITLE "Benthi" PERFORMER "Melissa feat. Khaled" ISRC FQeM70700001 INDEX 00 04:57:02FILE "14 - Melissa feat. Khaled - Benthi.wav" WAVE INDEX 01 00:00:00 TRACK 15 AUDIO TITLE "Qui On Appelle??" PERFORMER "Tairo feat. Diam's" ISRC FQH6G0700007 INDEX 00 04:41:55FILE "15 - Tairo feat. Diam's - Qui On Appelle.wav" WAVE INDEX 01 00:00:00FILE "16 - Sir Samuel - Frerot.wav" WAVE TRACK 16 AUDIO TITLE "Frerot" PERFORMER "Sir Samuel" ISRC FQH6G0700007 INDEX 01 00:00:00FILE "17 - Akil - Nahreg Alik.wav" WAVE TRACK 17 AUDIO TITLE "Nahreg Alik" PERFORMER "Akil" ISRC FQH6G0700022 INDEX 01 00:00:00 TRACK 18 AUDIO TITLE "Ennemi D'Etat" PERFORMER "Sinik" ISRC FQH6G0700008 INDEX 00 03:46:17FILE "18 - Sinik - Ennemi D'Etat.wav" WAVE INDEX 01 00:00:00FILE "19 - Nessbeal feat. K-Reen - Legende D'Hiver.wav" WAVE TRACK 19 AUDIO TITLE "Legende D'Hiver" PERFORMER "Nessbeal feat. K-Reen" ISRC FQH6G0700010 INDEX 01 00:00:00


Трекер:  [ 12-Июн-2013 16:40 ]

  

Скачать .torrent

Размер .torrent файла 14 KB


Размер: 570 MB
Хэш (hash) релиза: be41a28dfae86fcc9ce08e2d713fab217db9fa1f

bot

Топик был перенесен в форум Саундтреки к фильмам и мультфильмам (lossless)

Перенес Galfimbul

Хотите добавить комментарий к записи скачать торрент Такси 4 Taxi 4 - 2007, FLAC

!Обратная связь