Скачать через торрент музыку Вампирши-лесбиянки Vampyros Lesbos бесплатно без регистрации torrent

Если у вас наблюдаются проблемы со скриншотами, переходом по ссылками, скачиванием торрентов - проблемы в блокировщике рекламы AdBlock. #хорошегоДня!


Статистика раздачи
Размер:  425 MB   |    Зарегистрирован:  4 года 5 месяцев   |    .torrent скачан:  46 раз   |   
Раздают:  1  
   
Загрузка...
 
Автор Сообщение

Galfimbul

avatar Galfimbul


1971 - Вампирши-лесбиянки / Vampyros Lesbos
1971 - Она убивала в экстазе / Sie Tötete In Ekstase
1971 - Дьявол прибыл из Акасавы / Der Teufel Kam Aus Akasava
Название альбома: 3 Films By Jess Franco
Жанр: Score
Композитор: Manfred Hübler & Siegfried Schwab
Год выпуска диска: 1995
Год выпуска фильма: 1971 / 1971 / 1971
Страна-производитель диска: Германия
Издатель (лейбл): Lucertola Media
Номер по каталогу: LMCD 004

Аудиокодек: FLAC (*.flac)
Тип рипа: tracks+.cue
Битрейт аудио: lossless
Продолжительность: 01:08:01

Источник: cinemageddon.net
Наличие сканов в содержимом раздачи: нет

Треклист:
01 The Lions And The Cucumber (5:09)
02 Psycho Contact - Part One (1:33)
03 There Is No Satisfaction (3:10)
04 Psycho Contact - Part Two (1:38)
05 The Message (3:22)
06 Psycho Contact - Part Three (1:33)
07 Ghosts Or Good And Bad Onions (4:28)
08 Psycho Contact - Part Four (1:31)
09 Countdown To Nowhere (2:27)
10 Psycho Contact - Part Five (1:24)
11 Droge CX 9 (5:12)
12 Dedicated To Love (2:32)
13 People's Playground - Version A (0:50)
14 We Don't Care (5:21)
15 People's Playground - Version B (1:18)
16 The Ballad Of A Fair Singer (4:33)
17 People's Playground - Version C (1:22)
18 Necronomania (2:10)
19 Kama Sutra (4:01)
20 People's Playground - Version D (1:01)
21 Shindai Lovers (4:19)
22 Konkubination (3:58)
23 People's Playground - Version E (0:50)
24 The Six Wisdoms Of Aspasia (4:20)

Доп. информация: Достаточно редкое на сегодняшний день издание (500 копий) композиций для саундтреков к трём фильмам признанного классика евротреша испанца Джесса Франко (Jesus Franco). Какие конкретно композиции относятся к какому фильму сказать я затрудняюсь, ибо информации подобной нигде нет, но, зная подход к производству фильмов Франко, немудрено полагать, что он использовал эти композиции во всех трёх фильмах сразу одновременно, так как картины вышли в течение 1971 года.
Также рекомендую ознакомиться вот с этим похожим изданием этих же трёх саундтреков.
EAC extraction logfile from 31. August 2008, 21:53 for CDManfred Hubler & Sigfried Schwab / 3 Films by Jess Franco

Used drive : HL-DT-STDVD-ROM GDR8163B Adapter: 0 ID: 1Read mode : Secure with NO C2, accurate stream, disable cacheRead offset correction : 102Overread into Lead-In and Lead-Out : No

Used output format : C:\Programme\Exact Audio Copy\flac.exe (User Defined Encoder) 128 kBit/s Additional command line options : -V -5 -T "artist=%a" -T "title=%t" -T "album=%g" -T "date=%y" -T "tracknumber=%n" -T "genre=%m" %s

Other options : Fill up missing offset samples with silence : Yes Delete leading and trailing silent blocks : No Native Win32 interface for Win NT & 2000

Track 1 Filename C:\3 Films by Jess Franco\01 - Manfred Hubler & Sigfried Schwab - The Lions and the Cucumber.wav

Pre-gap length 0:00:02.00

Peak level 99.9 % Track quality 100.0 % Test CRC 4CD75F29 Copy CRC 4CD75F29 Copy OK

Track 2 Filename C:\3 Films by Jess Franco\02 - Manfred Hubler & Sigfried Schwab - Psycho Contact - Part One.wav

Pre-gap length 0:00:02.00

Peak level 100.0 % Track quality 100.0 % Test CRC 7C6E467B Copy CRC 7C6E467B Copy OK

Track 3 Filename C:\3 Films by Jess Franco\03 - Manfred Hubler & Sigfried Schwab - There is No Satisfaction.wav

Pre-gap length 0:00:01.88

Peak level 99.9 % Track quality 100.0 % Test CRC 9EE0CC94 Copy CRC 9EE0CC94 Copy OK

Track 4 Filename C:\3 Films by Jess Franco\04 - Manfred Hubler & Sigfried Schwab - Psycho Contract - Part Two.wav

Pre-gap length 0:00:01.98

Peak level 100.0 % Track quality 100.0 % Test CRC 1BACFC96 Copy CRC 1BACFC96 Copy OK

Track 5 Filename C:\3 Films by Jess Franco\05 - Manfred Hubler & Sigfried Schwab - The Message.wav

Pre-gap length 0:00:01.96

Peak level 99.9 % Track quality 100.0 % Test CRC 0D584398 Copy CRC 0D584398 Copy OK

Track 6 Filename C:\3 Films by Jess Franco\06 - Manfred Hubler & Sigfried Schwab - Psycho Contract - Part Three.wav

Pre-gap length 0:00:02.00

Peak level 100.0 % Track quality 100.0 % Test CRC 4D151905 Copy CRC 4D151905 Copy OK

Track 7 Filename C:\3 Films by Jess Franco\07 - Manfred Hubler & Sigfried Schwab - Ghost or Good and Bad Onions.wav

Pre-gap length 0:00:01.98

Peak level 100.0 % Track quality 100.0 % Test CRC D573980C Copy CRC D573980C Copy OK

Track 8 Filename C:\3 Films by Jess Franco\08 - Manfred Hubler & Sigfried Schwab - Psycho Contract - Part Four.wav

Pre-gap length 0:00:01.93

Peak level 100.0 % Track quality 100.0 % Test CRC B92186F3 Copy CRC B92186F3 Copy OK

Track 9 Filename C:\3 Films by Jess Franco\09 - Manfred Hubler & Sigfried Schwab - Countdown to Nowhere.wav

Pre-gap length 0:00:01.97

Peak level 99.9 % Track quality 99.9 % Test CRC 3B65532A Copy CRC 3B65532A Copy OK

Track 10 Filename C:\3 Films by Jess Franco\10 - Manfred Hubler & Sigfried Schwab - Psycho Contract - Part 5.wav

Pre-gap length 0:00:01.97

Peak level 99.9 % Track quality 100.0 % Test CRC BB949F1A Copy CRC BB949F1A Copy OK

Track 11 Filename C:\3 Films by Jess Franco\11 - Manfred Hubler & Sigfried Schwab - Droge CX 9.wav

Pre-gap length 0:00:02.00

Peak level 99.9 % Track quality 100.0 % Test CRC 11F5DBEA Copy CRC 11F5DBEA Copy OK

Track 12 Filename C:\3 Films by Jess Franco\12 - Manfred Hubler & Sigfried Schwab - Dedicated to Love.wav

Pre-gap length 0:00:02.00

Peak level 80.2 % Track quality 100.0 % Test CRC 406A00C0 Copy CRC 406A00C0 Copy OK

Track 13 Filename C:\3 Films by Jess Franco\13 - Manfred Hubler & Sigfried Schwab - People's Playground Version A.wav

Peak level 55.4 % Track quality 99.7 % Test CRC A881B8BB Copy CRC A881B8BB Copy OK

Track 14 Filename C:\3 Films by Jess Franco\14 - Manfred Hubler & Sigfried Schwab - We Dong Care.wav

Peak level 88.8 % Track quality 100.0 % Test CRC D51D136A Copy CRC D51D136A Copy OK

Track 15 Filename C:\3 Films by Jess Franco\15 - Manfred Hubler & Sigfried Schwab - People's Playground Version B.wav

Peak level 47.0 % Track quality 100.0 % Test CRC D9D73FA4 Copy CRC D9D73FA4 Copy OK

Track 16 Filename C:\3 Films by Jess Franco\16 - Manfred Hubler & Sigfried Schwab - The Ballad of a Fair Singer.wav

Peak level 80.9 % Track quality 100.0 % Test CRC DA10E7F5 Copy CRC DA10E7F5 Copy OK

Track 17 Filename C:\3 Films by Jess Franco\17 - Manfred Hubler & Sigfried Schwab - Peoples Plaground Version C.wav

Peak level 40.6 % Track quality 100.0 % Test CRC 667B169A Copy CRC 667B169A Copy OK

Track 18 Filename C:\3 Films by Jess Franco\18 - Manfred Hubler & Sigfried Schwab - Necronomania.wav

Peak level 100.0 % Track quality 100.0 % Test CRC 9721F1AE Copy CRC 9721F1AE Copy OK

Track 19 Filename C:\3 Films by Jess Franco\19 - Manfred Hubler & Sigfried Schwab - Kama Sutra.wav

Pre-gap length 0:00:01.96

Peak level 76.3 % Track quality 100.0 % Test CRC 63570E12 Copy CRC 63570E12 Copy OK

Track 20 Filename C:\3 Films by Jess Franco\20 - Manfred Hubler & Sigfried Schwab - People's Playground Version D.wav

Peak level 60.3 % Track quality 100.0 % Test CRC F0935E0D Copy CRC F0935E0D Copy OK

Track 21 Filename C:\3 Films by Jess Franco\21 - Manfred Hubler & Sigfried Schwab - Shindai Lovers.wav

Peak level 89.6 % Track quality 100.0 % Test CRC 16E8AD1A Copy CRC 16E8AD1A Copy OK

Track 22 Filename C:\3 Films by Jess Franco\22 - Manfred Hubler & Sigfried Schwab - Konkubination.wav

Peak level 84.0 % Track quality 100.0 % Test CRC 684874F1 Copy CRC 684874F1 Copy OK

Track 23 Filename C:\3 Films by Jess Franco\23 - Manfred Hubler & Sigfried Schwab - People's Playground Version E.wav

Peak level 63.5 % Track quality 100.0 % Test CRC F9A443B2 Copy CRC F9A443B2 Copy OK

Track 24 Filename C:\3 Films by Jess Franco\24 - Manfred Hubler & Sigfried Schwab - The Six Wisdoms of Aspasia.wav

Peak level 81.1 % Track quality 100.0 % Test CRC 81A1C724 Copy CRC 81A1C724 Copy OK

No errors occured

End of status report
REM GENRE SoundtrackREM DATE 1995REM DISCID 640FF118REM COMMENT "ExactAudioCopy v0.95b3"PERFORMER "Manfred Hubler & Siegfried Schwab"TITLE "3 Films By Jess Franco"FILE "01 The Lions And The Cucumber.wav" WAVE TRACK 01 AUDIO TITLE "The Lions And The Cucumber" PERFORMER "Manfred Hubler & Siegfried Schwab" INDEX 01 00:00:00 TRACK 02 AUDIO TITLE "Psycho Contact - Part One" PERFORMER "Manfred Hubler & Siegfried Schwab" INDEX 00 05:07:19FILE "02 Psycho Contact - Part One.wav" WAVE INDEX 01 00:00:00 TRACK 03 AUDIO TITLE "There Is No Satisfaction" PERFORMER "Manfred Hubler & Siegfried Schwab" INDEX 00 01:30:73FILE "03 There Is No Satisfaction.wav" WAVE INDEX 01 00:00:00 TRACK 04 AUDIO TITLE "Psycho Contact - Part Two" PERFORMER "Manfred Hubler & Siegfried Schwab" INDEX 00 03:07:40FILE "04 Psycho Contact - Part Two.wav" WAVE INDEX 01 00:00:00 TRACK 05 AUDIO TITLE "The Message" PERFORMER "Manfred Hubler & Siegfried Schwab" INDEX 00 01:36:12FILE "05 The Message.wav" WAVE INDEX 01 00:00:00 TRACK 06 AUDIO TITLE "Psycho Contact - Part Three" PERFORMER "Manfred Hubler & Siegfried Schwab" INDEX 00 03:19:47FILE "06 Psycho Contact - Part Three.wav" WAVE INDEX 01 00:00:00 TRACK 07 AUDIO TITLE "Ghosts Or Good And Bad Onions" PERFORMER "Manfred Hubler & Siegfried Schwab" INDEX 00 01:30:65FILE "07 Ghosts Or Good And Bad Onions.wav" WAVE INDEX 01 00:00:00 TRACK 08 AUDIO TITLE "Psycho Contact - Part Four" PERFORMER "Manfred Hubler & Siegfried Schwab" INDEX 00 04:26:40FILE "08 Psycho Contact - Part Four.wav" WAVE INDEX 01 00:00:00 TRACK 09 AUDIO TITLE "Countdown To Nowhere" PERFORMER "Manfred Hubler & Siegfried Schwab" INDEX 00 01:29:12FILE "09 Countdown To Nowhere.wav" WAVE INDEX 01 00:00:00 TRACK 10 AUDIO TITLE "Psycho Contact - Part Five" PERFORMER "Manfred Hubler & Siegfried Schwab" INDEX 00 02:24:60FILE "10 Psycho Contact - Part Five.wav" WAVE INDEX 01 00:00:00 TRACK 11 AUDIO TITLE "Droge CX 9" PERFORMER "Manfred Hubler & Siegfried Schwab" INDEX 00 01:21:65FILE "11 Droge CX 9.wav" WAVE INDEX 01 00:00:00 TRACK 12 AUDIO TITLE "Dedicated To Love" PERFORMER "Manfred Hubler & Siegfried Schwab" INDEX 00 05:09:54FILE "12 Dedicated To Love.wav" WAVE INDEX 01 00:00:00FILE "13 People's Playground - Version A.wav" WAVE TRACK 13 AUDIO TITLE "People's Playground - Version A" PERFORMER "Manfred Hubler & Siegfried Schwab" INDEX 01 00:00:00FILE "14 We Don't Care.wav" WAVE TRACK 14 AUDIO TITLE "We Don't Care" PERFORMER "Manfred Hubler & Siegfried Schwab" INDEX 01 00:00:00FILE "15 People's Playground - Version B.wav" WAVE TRACK 15 AUDIO TITLE "People's Playground - Version B" PERFORMER "Manfred Hubler & Siegfried Schwab" INDEX 01 00:00:00FILE "16 The Ballad Of A Fair Singer.wav" WAVE TRACK 16 AUDIO TITLE "The Ballad Of A Fair Singer" PERFORMER "Manfred Hubler & Siegfried Schwab" INDEX 01 00:00:00FILE "17 People's Playground - Version C.wav" WAVE TRACK 17 AUDIO TITLE "People's Playground - Version C" PERFORMER "Manfred Hubler & Siegfried Schwab" INDEX 01 00:00:00FILE "18 Necronomania.wav" WAVE TRACK 18 AUDIO TITLE "Necronomania" PERFORMER "Manfred Hubler & Siegfried Schwab" INDEX 01 00:00:00 TRACK 19 AUDIO TITLE "Kama Sutra" PERFORMER "Manfred Hubler & Siegfried Schwab" INDEX 00 02:07:72FILE "19 Kama Sutra.wav" WAVE INDEX 01 00:00:00FILE "20 People's Playground - Version D.wav" WAVE TRACK 20 AUDIO TITLE "People's Playground - Version D" PERFORMER "Manfred Hubler & Siegfried Schwab" INDEX 01 00:00:00FILE "21 Shindai Lovers.wav" WAVE TRACK 21 AUDIO TITLE "Shindai Lovers" PERFORMER "Manfred Hubler & Siegfried Schwab" INDEX 01 00:00:00FILE "22 Konkubination.wav" WAVE TRACK 22 AUDIO TITLE "Konkubination" PERFORMER "Manfred Hubler & Siegfried Schwab" INDEX 01 00:00:00FILE "23 People's Playground - Version E.wav" WAVE TRACK 23 AUDIO TITLE "People's Playground - Version E" PERFORMER "Manfred Hubler & Siegfried Schwab" INDEX 01 00:00:00FILE "24 The Six Wisdoms Of Aspasia.wav" WAVE TRACK 24 AUDIO TITLE "The Six Wisdoms Of Aspasia" PERFORMER "Manfred Hubler & Siegfried Schwab" INDEX 01 00:00:00




Трекер:  [ 12-Июн-2013 16:40 ]

  

Скачать .torrent

Размер .torrent файла 18 KB


Размер: 425 MB
Хэш (hash) релиза: 82a2885a7839cc473122f7298d19c6661989ccb4

bot

Топик был перенесен в форум Саундтреки к фильмам и мультфильмам (lossless)

Перенес Galfimbul

Хотите добавить комментарий к записи скачать торрент Вампирши-лесбиянки Vampyros Lesbos

!Обратная связь