Скачать через торрент музыку Cirque Du Soleil - Amaluna - 2012, FLAC бесплатно без регистрации torrent

Если у вас наблюдаются проблемы со скриншотами, переходом по ссылками, скачиванием торрентов - проблемы в блокировщике рекламы AdBlock. #хорошегоДня!


Статистика раздачи
Размер:  388 MB   |    Зарегистрирован:  4 года 3 месяца   |    .torrent скачан:  30 раз   |   
Раздают:  1  
   
Загрузка...
 
Автор Сообщение

Galfimbul

avatar Galfimbul


Cirque Du Soleil - Amaluna

Название альбома: Cirque Du Soleil - Amaluna
Жанр: Soundtrack / Score
Год выпуска диска: 2012
Страна-производитель диска: Canada
Аудиокодек: FLAC (*.flac)
Тип рипа: tracks
Битрейт аудио: lossless
Продолжительность: 01:00:25
Источник: собственный рип
сайт-источник/ник/другое: CD
Наличие сканов в содержимом раздачи: нет
Треклист:
1. All Come Together
2. Elma Om Mi Lize
3. Tempest
4. Enchanted Reunion
5. Fly Around
6. Hope
7. O Ma Ley
8. Burn Me Up
9. Whisper
10. Running On The Edge
11. Ena Fee Alyne
12. Creature Of Light
13. Mutations
14. Run

Торрент перезалит 17/02/2013
Exact Audio Copy V1.0 beta 3 from 29. August 2011

EAC extraction logfile from 28. January 2013, 20:50

Cirque du Soleil / Amaluna

Used drive : HL-DT-STBDDVDRW CH12LS28 Adapter: 0 ID: 2

Read mode : SecureUtilize accurate stream : YesDefeat audio cache : YesMake use of C2 pointers : No

Read offset correction : 667Overread into Lead-In and Lead-Out : NoFill up missing offset samples with silence : YesDelete leading and trailing silent blocks : NoNull samples used in CRC calculations : YesUsed interface : Native Win32 interface for Win NT & 2000Gap handling : Appended to previous track

Used output format : Internal WAV RoutinesSample format : 44.100 Hz; 16 Bit; Stereo

TOC of the extracted CD

Track | Start | Length | Start sector | End sector --------------------------------------------------------- 1 | 0:00.00 | 5:54.59 | 0 | 26608 2 | 5:54.59 | 3:35.70 | 26609 | 42803 3 | 9:30.54 | 4:24.07 | 42804 | 62610 4 | 13:54.61 | 5:41.42 | 62611 | 88227 5 | 19:36.28 | 3:45.52 | 88228 | 105154 6 | 23:22.05 | 3:28.38 | 105155 | 120792 7 | 26:50.43 | 4:29.74 | 120793 | 141041 8 | 31:20.42 | 3:45.05 | 141042 | 157921 9 | 35:05.47 | 4:41.59 | 157922 | 179055 10 | 39:47.31 | 4:00.68 | 179056 | 197123 11 | 43:48.24 | 3:38.37 | 197124 | 213510 12 | 47:26.61 | 4:51.48 | 213511 | 235383 13 | 52:18.34 | 3:43.19 | 235384 | 252127 14 | 56:01.53 | 4:23.37 | 252128 | 271889

Track 1

Filename D:\New folder (2)\01. All Come Together.wav

Pre-gap length 0:00:02.00

Peak level 98.4 % Extraction speed 1.3 X Track quality 100.0 % Copy CRC C322C3C3 Accurately ripped (confidence 1) [750BBF94] (AR v2) Copy OK

Track 2

Filename D:\New folder (2)\02. Elma Om Mi Lize.wav

Peak level 98.3 % Extraction speed 1.4 X Track quality 100.0 % Copy CRC 3C685551 Accurately ripped (confidence 1) [24684201] (AR v2) Copy OK

Track 3

Filename D:\New folder (2)\03. Tempest.wav

Peak level 98.6 % Extraction speed 1.6 X Track quality 100.0 % Copy CRC CF70346C Accurately ripped (confidence 1) [F1613822] (AR v2) Copy OK

Track 4

Filename D:\New folder (2)\04. Enchanted Reunion.wav

Peak level 98.3 % Extraction speed 1.8 X Track quality 100.0 % Copy CRC 01425C94 Accurately ripped (confidence 1) [E68E36C5] (AR v2) Copy OK

Track 5

Filename D:\New folder (2)\05. Fly Around.wav

Peak level 98.8 % Extraction speed 1.8 X Track quality 100.0 % Copy CRC 9B3A2B2D Accurately ripped (confidence 1) [AF2F18E3] (AR v2) Copy OK

Track 6

Filename D:\New folder (2)\06. Hope.wav

Peak level 98.5 % Extraction speed 1.6 X Track quality 99.9 % Copy CRC C2283CCC Accurately ripped (confidence 1) [99ABD310] (AR v2) Copy OK

Track 7

Filename D:\New folder (2)\07. O Ma Ley.wav

Peak level 99.8 % Extraction speed 2.1 X Track quality 100.0 % Copy CRC DC99FEA3 Accurately ripped (confidence 1) [0E3146D8] (AR v2) Copy OK

Track 8

Filename D:\New folder (2)\08. Burn Me Up.wav

Peak level 98.5 % Extraction speed 1.9 X Track quality 99.9 % Copy CRC C3156C2C Accurately ripped (confidence 1) [EDC26E63] (AR v2) Copy OK

Track 9

Filename D:\New folder (2)\09. Whisper.wav

Peak level 98.2 % Extraction speed 2.3 X Track quality 100.0 % Copy CRC 9818CEE6 Accurately ripped (confidence 1) [6299DDB5] (AR v2) Copy OK

Track 10

Filename D:\New folder (2)\10. Running on the Edge.wav

Peak level 98.4 % Extraction speed 2.3 X Track quality 100.0 % Copy CRC 31BCAD56 Accurately ripped (confidence 1) [273C4A22] (AR v2) Copy OK

Track 11

Filename D:\New folder (2)\11. Ena Fee Alyne.wav

Peak level 98.8 % Extraction speed 2.3 X Track quality 100.0 % Copy CRC 131644CA Accurately ripped (confidence 1) [EAAE89A2] (AR v2) Copy OK

Track 12

Filename D:\New folder (2)\12. Creature of Light.wav

Peak level 98.2 % Extraction speed 2.5 X Track quality 100.0 % Copy CRC DB0A88FB Accurately ripped (confidence 1) [04FACBE3] (AR v2) Copy OK

Track 13

Filename D:\New folder (2)\13. Mutation.wav

Peak level 99.7 % Extraction speed 2.5 X Track quality 100.0 % Copy CRC 6ED41F66 Accurately ripped (confidence 1) [FC105AAF] (AR v2) Copy OK

Track 14

Filename D:\New folder (2)\14. Run.wav

Peak level 98.4 % Extraction speed 2.7 X Track quality 100.0 % Copy CRC 61B910A3 Accurately ripped (confidence 1) [CA90ABFF] (AR v2) Copy OK

All tracks accurately ripped

No errors occurred

End of status report

---- CUETools DB Plugin V2.1.3

[CTDB TOCID: SizF71VItbOsZIrCMfIKHypGGbE-] found, Submit result: already submitted[92032873] (3/4) Accurately ripped[533aac80] (1/4) No match

==== Log checksum A8EB797B7E8AE02F616A48DF1F544C61A6AFFFB2A583C0814C7B6A8A9F68A186 ====
REM DISCID BE0E290EREM COMMENT "ExactAudioCopy v1.0b3"CATALOG 0843277057229PERFORMER "Cirque du Soleil"TITLE "Amaluna"FILE "01. All Come Together.flac" WAVE TRACK 01 AUDIO TITLE "All Come Together" PERFORMER "Cirque du Soleil" ISRC CAC601220010 INDEX 01 00:00:00FILE "02. Elma Om Mi Lize.flac" WAVE TRACK 02 AUDIO TITLE "Elma Om Mi Lize" PERFORMER "Cirque du Soleil" ISRC CAC601220020 INDEX 01 00:00:00FILE "03. Tempest.flac" WAVE TRACK 03 AUDIO TITLE "Tempest" PERFORMER "Cirque du Soleil" ISRC CAC601220030 INDEX 01 00:00:00FILE "04. Enchanted Reunion.flac" WAVE TRACK 04 AUDIO TITLE "Enchanted Reunion" PERFORMER "Cirque du Soleil" ISRC CAC601220040 INDEX 01 00:00:00FILE "05. Fly Around.flac" WAVE TRACK 05 AUDIO TITLE "Fly Around" PERFORMER "Cirque du Soleil" ISRC CAC601220050 INDEX 01 00:00:00FILE "06. Hope.flac" WAVE TRACK 06 AUDIO TITLE "Hope" PERFORMER "Cirque du Soleil" ISRC CAC601220060 INDEX 01 00:00:00FILE "07. O Ma Ley.flac" WAVE TRACK 07 AUDIO TITLE "O Ma Ley" PERFORMER "Cirque du Soleil" ISRC CAC601220070 INDEX 01 00:00:00FILE "08. Burn Me Up.flac" WAVE TRACK 08 AUDIO TITLE "Burn Me Up" PERFORMER "Cirque du Soleil" ISRC CAC601220080 INDEX 01 00:00:00FILE "09. Whisper.flac" WAVE TRACK 09 AUDIO TITLE "Whisper" PERFORMER "Cirque du Soleil" ISRC CAC601220090 INDEX 01 00:00:00FILE "10. Running on the Edge.flac" WAVE TRACK 10 AUDIO TITLE "Running on the Edge" PERFORMER "Cirque du Soleil" ISRC CAC601220100 INDEX 01 00:00:00FILE "11. Ena Fee Alyne.flac" WAVE TRACK 11 AUDIO TITLE "Ena Fee Alyne" PERFORMER "Cirque du Soleil" ISRC CAC601220110 INDEX 01 00:00:00FILE "12. Creature of Light.flac" WAVE TRACK 12 AUDIO TITLE "Creature of Light" PERFORMER "Cirque du Soleil" ISRC CAC601220120 INDEX 01 00:00:00FILE "13. Mutation.flac" WAVE TRACK 13 AUDIO TITLE "Mutation" PERFORMER "Cirque du Soleil" ISRC CAC601220130 INDEX 01 00:00:00FILE "14. Run.flac" WAVE TRACK 14 AUDIO TITLE "Run" PERFORMER "Cirque du Soleil" ISRC CAC601220140 INDEX 01 00:00:00


Трекер:  [ 12-Июн-2013 16:40 ]

  

Скачать .torrent

Размер .torrent файла 16 KB


Размер: 388 MB
Хэш (hash) релиза: b4156c5dacead500f7871ea1a9a06bbcfa07439e

Торренты, похожие на Cirque Du Soleil - Amaluna - 2012, FLAC скачать торрент

Форум Название Автор Размер S L Добавлен
Саундтреки ·· (Soundtrack) Cirque Du Soleil - Amaluna - 2012, FLAC (tracks), lossless Galfimbul 406238816387 MB 0 0 1356622500

18:35

27-Дек-12

bot

Топик был перенесен в форум Саундтреки к фильмам и мультфильмам (lossless)

Перенес Galfimbul

Хотите добавить комментарий к записи скачать торрент Cirque Du Soleil - Amaluna - 2012, FLAC

!Обратная связь