Скачать через торрент музыку Цветы Войны The Flowers Of War бесплатно без регистрации torrent

Если у вас наблюдаются проблемы со скриншотами, переходом по ссылками, скачиванием торрентов - проблемы в блокировщике рекламы AdBlock. #хорошегоДня!


Статистика раздачи
Размер:  216 MB   |    Зарегистрирован:  4 года 3 месяца   |    .torrent скачан:  18 раз   |   
Раздают:  1  
   
Загрузка...
 
Автор Сообщение

Galfimbul

avatar Galfimbul


Цветы Войны / The Flowers Of War / Jin líng shí san chai







Жанр: Score
Композитор: Qigang Chen
Год Выпуска Диска: 2011
Год Выпуска Фильма: 2011
Страна Производителя Диска: USA
Издатель (Лейбл): Sony Classics
Номер по каталогу: 799256-2



Аудиокодек: FLAC
Тип рипа: tracks+.cue
Продолжительность: 00:51:22



Источник: eMule.
Наличие сканов в содержимом раздачи: Нет.



Треклист:
1. Love Theme I (Opening Credit) [02:31]
2. Qin Huai Legend I (Falling in Love) [03:17]
3. Redemption II (Tragedy in the Church) [01:22]
4. Qin Huai Legend V (Parting Exhortation) [01:07]
5. They are at Peace I (Death of Commander Li) [01:13]
6. Qin Huai Legend II (Blood-Stained Strings) [01:22]
7. Love Theme II (State of Mind) [01:11]
8. Redemption V (Tragedy in the Church – Material 1) [02:35]
9. Angels We Have Heard on High [00:50]
10. Comfort and Hope I (Tragedy in the Church – Alternative Version 2) [05:27]
11. Redemption III (Alternative Version) [01:10]
12. Virgin (Alternative Version) [02:04]
13. Requiem and Redemption (Commander Li and the Children) [02:12]
14. Qin Huai Legend VII (Geishas’ Chorus) [01:41]
15. Ruins (Alternative Version) [01:21]
16. They Are at Peace II (Brutality) [02:39]
17. Love Theme III (Descent from Heaven) [01:53]
18. Comfort and Hope II (Opening Credit – Alternative Version) [01:57]
19. Heavenly Voice I (John and the Children’s dialogue) [01:58]
20. Qin Huai Legend III (Entering the Gate) [01:24]
21. Qin Huai Legend VI (Sisterhood) [01:14]
22. Love Theme V (Parting – Alternative Version) [01:11]
23. Heavenly Voice II (Alternative Version) [01:52]
24. Qin Huai Legend IV (End Credit Chorus) [03:28]
25. Comfort and Hope III (Running Towards Light) [02:19]
26. Love Theme IV (End Credit) [01:50]
Exact Audio Copy V1.0 beta 2 from 29. April 2011

EAC extraction logfile from 8. July 2012, 8:31

Qigang Chen / The Flowers Of War

Used drive : SONY DVD RW DRU-880S Adapter: 2 ID: 1

Read mode : SecureUtilize accurate stream : YesDefeat audio cache : YesMake use of C2 pointers : No

Read offset correction : 48Overread into Lead-In and Lead-Out : NoFill up missing offset samples with silence : YesDelete leading and trailing silent blocks : NoNull samples used in CRC calculations : YesUsed interface : Native Win32 interface for Win NT & 2000Gap handling : Appended to previous track

Used output format : User Defined EncoderSelected bitrate : 256 kBit/sQuality : HighAdd ID3 tag : NoCommand line compressor : C:\Program Files\FLAC\flac.exeAdditional command line options : -8 -V -T "ARTIST=%artist%" -T "TITLE=%title%" -T "ALBUM=%albumtitle%" -T "DATE=%year%" -T "TRACKNUMBER=%tracknr%" -T "TOTALTRACKS=%numtracks%" -T "GENRE=%genre%" -T "ALBUMARTIST=%albumartist%" -T "ALBUM ARTIST=%albumartist%

TOC of the extracted CD

Track | Start | Length | Start sector | End sector --------------------------------------------------------- 1 | 0:00.00 | 2:31.65 | 0 | 11389 2 | 2:31.65 | 3:17.48 | 11390 | 26212 3 | 5:49.38 | 1:23.09 | 26213 | 32446 4 | 7:12.47 | 1:07.49 | 32447 | 37520 5 | 8:20.21 | 1:14.06 | 37521 | 43076 6 | 9:34.27 | 1:24.04 | 43077 | 49380 7 | 10:58.31 | 1:11.37 | 49381 | 54742 8 | 12:09.68 | 2:38.40 | 54743 | 66632 9 | 14:48.33 | 0:51.15 | 66633 | 70472 10 | 15:39.48 | 5:28.17 | 70473 | 95089 11 | 21:07.65 | 1:12.25 | 95090 | 100514 12 | 22:20.15 | 2:06.43 | 100515 | 110007 13 | 24:26.58 | 2:14.40 | 110008 | 120097 14 | 26:41.23 | 1:42.67 | 120098 | 127814 15 | 28:24.15 | 1:23.30 | 127815 | 134069 16 | 29:47.45 | 2:39.62 | 134070 | 146056 17 | 32:27.32 | 1:53.24 | 146057 | 154555 18 | 34:20.56 | 1:59.35 | 154556 | 163515 19 | 36:20.16 | 1:58.27 | 163516 | 172392 20 | 38:18.43 | 1:25.00 | 172393 | 178767 21 | 39:43.43 | 1:14.22 | 178768 | 184339 22 | 40:57.65 | 1:11.52 | 184340 | 189716 23 | 42:09.42 | 1:52.58 | 189717 | 198174 24 | 44:02.25 | 3:28.59 | 198175 | 213833 25 | 47:31.09 | 2:19.16 | 213834 | 224274 26 | 49:50.25 | 1:50.09 | 224275 | 232533

Track 1

Filename D:\Upload\Qigang Chen - The Flowers Of War (2011) [FLAC] {Original EU, LC 06868}\01 - Love Theme I (Opening Credits).wav

Pre-gap length 0:00:02.00

Peak level 51.5 % Extraction speed 1.0 X Track quality 100.0 % Test CRC 0ACD6E01 Copy CRC 0ACD6E01 Track not present in AccurateRip database Copy OK

Track 2

Filename D:\Upload\Qigang Chen - The Flowers Of War (2011) [FLAC] {Original EU, LC 06868}\02 - Qin Huai Legend I (Falling In Love).wav

Peak level 42.4 % Extraction speed 1.0 X Track quality 100.0 % Test CRC 96D2020C Copy CRC 96D2020C Track not present in AccurateRip database Copy OK

Track 3

Filename D:\Upload\Qigang Chen - The Flowers Of War (2011) [FLAC] {Original EU, LC 06868}\03 - Redemption II (Tragedy In The Church).wav

Pre-gap length 0:00:00.26

Peak level 99.0 % Extraction speed 0.8 X Track quality 100.0 % Test CRC 1CD6CFFF Copy CRC 1CD6CFFF Track not present in AccurateRip database Copy OK

Track 4

Filename D:\Upload\Qigang Chen - The Flowers Of War (2011) [FLAC] {Original EU, LC 06868}\04 - Qin Huai Legend V (Parting Exhortation).wav

Pre-gap length 0:00:00.64

Peak level 32.9 % Extraction speed 0.8 X Track quality 100.0 % Test CRC 432CEBAD Copy CRC 432CEBAD Track not present in AccurateRip database Copy OK

Track 5

Filename D:\Upload\Qigang Chen - The Flowers Of War (2011) [FLAC] {Original EU, LC 06868}\05 - They Are At Peace I (Death Of Commander Li).wav

Peak level 99.0 % Extraction speed 0.8 X Track quality 100.0 % Test CRC B91331D5 Copy CRC B91331D5 Track not present in AccurateRip database Copy OK

Track 6

Filename D:\Upload\Qigang Chen - The Flowers Of War (2011) [FLAC] {Original EU, LC 06868}\06 - Qin Huai Legend II (Bloodstained Strings).wav

Pre-gap length 0:00:00.23

Peak level 19.5 % Extraction speed 0.8 X Track quality 100.0 % Test CRC D1C58C57 Copy CRC D1C58C57 Track not present in AccurateRip database Copy OK

Track 7

Filename D:\Upload\Qigang Chen - The Flowers Of War (2011) [FLAC] {Original EU, LC 06868}\07 - Love Theme II (State Of Mind).wav

Pre-gap length 0:00:01.28

Peak level 45.1 % Extraction speed 0.8 X Track quality 100.0 % Test CRC 71424E4F Copy CRC 71424E4F Track not present in AccurateRip database Copy OK

Track 8

Filename D:\Upload\Qigang Chen - The Flowers Of War (2011) [FLAC] {Original EU, LC 06868}\08 - Redemption V (Tragedy In The Church).wav

Pre-gap length 0:00:00.03

Peak level 99.0 % Extraction speed 1.0 X Track quality 100.0 % Test CRC 41DA231E Copy CRC 41DA231E Track not present in AccurateRip database Copy OK

Track 9

Filename D:\Upload\Qigang Chen - The Flowers Of War (2011) [FLAC] {Original EU, LC 06868}\09 - Angels We Have Heard On High.wav

Pre-gap length 0:00:02.71

Peak level 55.5 % Extraction speed 0.7 X Track quality 100.0 % Test CRC 4785187B Copy CRC 4785187B Track not present in AccurateRip database Copy OK

Track 10

Filename D:\Upload\Qigang Chen - The Flowers Of War (2011) [FLAC] {Original EU, LC 06868}\10 - Comfort And Hope I (Tragedy In The Church).wav

Pre-gap length 0:00:00.55

Peak level 70.1 % Extraction speed 1.1 X Track quality 100.0 % Test CRC DB3E740F Copy CRC DB3E740F Track not present in AccurateRip database Copy OK

Track 11

Filename D:\Upload\Qigang Chen - The Flowers Of War (2011) [FLAC] {Original EU, LC 06868}\11 - Redemption III.wav

Pre-gap length 0:00:00.55

Peak level 34.5 % Extraction speed 0.8 X Track quality 100.0 % Test CRC C3E7B87F Copy CRC C3E7B87F Track not present in AccurateRip database Copy OK

Track 12

Filename D:\Upload\Qigang Chen - The Flowers Of War (2011) [FLAC] {Original EU, LC 06868}\12 - Virgin.wav

Pre-gap length 0:00:01.44

Peak level 23.4 % Extraction speed 0.9 X Track quality 100.0 % Test CRC 1E35E4F4 Copy CRC 1E35E4F4 Track not present in AccurateRip database Copy OK

Track 13

Filename D:\Upload\Qigang Chen - The Flowers Of War (2011) [FLAC] {Original EU, LC 06868}\13 - Requiem And Redemption (Commander Li And The Children).wav

Pre-gap length 0:00:01.69

Peak level 64.0 % Extraction speed 1.0 X Track quality 100.0 % Test CRC 9BE44492 Copy CRC 9BE44492 Track not present in AccurateRip database Copy OK

Track 14

Filename D:\Upload\Qigang Chen - The Flowers Of War (2011) [FLAC] {Original EU, LC 06868}\14 - Qin Huai Legend VII (Geisha's Chorus).wav

Pre-gap length 0:00:01.69

Peak level 35.9 % Extraction speed 0.7 X Track quality 99.8 % Test CRC 41B489F7 Copy CRC 41B489F7 Track not present in AccurateRip database Copy OK

Track 15

Filename D:\Upload\Qigang Chen - The Flowers Of War (2011) [FLAC] {Original EU, LC 06868}\15 - Ruins.wav

Pre-gap length 0:00:01.14

Peak level 75.5 % Extraction speed 0.8 X Track quality 100.0 % Test CRC 823016EB Copy CRC 823016EB Track not present in AccurateRip database Copy OK

Track 16

Filename D:\Upload\Qigang Chen - The Flowers Of War (2011) [FLAC] {Original EU, LC 06868}\16 - They Are At Peace II (Brutality).wav

Pre-gap length 0:00:01.44

Peak level 99.7 % Extraction speed 1.0 X Track quality 100.0 % Test CRC D57A3B77 Copy CRC D57A3B77 Track not present in AccurateRip database Copy OK

Track 17

Filename D:\Upload\Qigang Chen - The Flowers Of War (2011) [FLAC] {Original EU, LC 06868}\17 - Love Theme III (Descent From Heaven).wav

Peak level 55.9 % Extraction speed 0.9 X Track quality 100.0 % Test CRC 8842CCBF Copy CRC 8842CCBF Track not present in AccurateRip database Copy OK

Track 18

Filename D:\Upload\Qigang Chen - The Flowers Of War (2011) [FLAC] {Original EU, LC 06868}\18 - Comfort And Hope II.wav

Pre-gap length 0:00:00.15

Peak level 99.0 % Extraction speed 0.9 X Track quality 100.0 % Test CRC 137D3A8E Copy CRC 137D3A8E Track not present in AccurateRip database Copy OK

Track 19

Filename D:\Upload\Qigang Chen - The Flowers Of War (2011) [FLAC] {Original EU, LC 06868}\19 - Heavenly Voice I.wav

Pre-gap length 0:00:01.40

Peak level 39.4 % Extraction speed 0.9 X Track quality 100.0 % Test CRC DF9B3A3B Copy CRC DF9B3A3B Track not present in AccurateRip database Copy OK

Track 20

Filename D:\Upload\Qigang Chen - The Flowers Of War (2011) [FLAC] {Original EU, LC 06868}\20 - Qin Huai Legend III (Entering The Gate).wav

Peak level 27.4 % Extraction speed 0.6 X Track quality 99.8 % Test CRC 3ECE9A3F Copy CRC 3ECE9A3F Track not present in AccurateRip database Copy OK

Track 21

Filename D:\Upload\Qigang Chen - The Flowers Of War (2011) [FLAC] {Original EU, LC 06868}\21 - Qin Huai Legend VI (Sisterhood).wav

Pre-gap length 0:00:00.17

Peak level 50.3 % Extraction speed 0.8 X Track quality 100.0 % Test CRC C5FEB23D Copy CRC C5FEB23D Track not present in AccurateRip database Copy OK

Track 22

Filename D:\Upload\Qigang Chen - The Flowers Of War (2011) [FLAC] {Original EU, LC 06868}\22 - Love Theme V (Parting).wav

Pre-gap length 0:00:00.18

Peak level 39.5 % Extraction speed 0.6 X Track quality 99.8 % Test CRC C20BE806 Copy CRC C20BE806 Track not present in AccurateRip database Copy OK

Track 23

Filename D:\Upload\Qigang Chen - The Flowers Of War (2011) [FLAC] {Original EU, LC 06868}\23 - Heavenly Voice II.wav

Peak level 43.4 % Extraction speed 0.9 X Track quality 100.0 % Test CRC DBBDFAC9 Copy CRC DBBDFAC9 Track not present in AccurateRip database Copy OK

Track 24

Filename D:\Upload\Qigang Chen - The Flowers Of War (2011) [FLAC] {Original EU, LC 06868}\24 - Qin Huai Legend IV.wav

Pre-gap length 0:00:00.02

Peak level 46.4 % Extraction speed 0.9 X Track quality 99.9 % Test CRC B751A26A Copy CRC B751A26A Track not present in AccurateRip database Copy OK

Track 25

Filename D:\Upload\Qigang Chen - The Flowers Of War (2011) [FLAC] {Original EU, LC 06868}\25 - Comfort And Hope III (Running Towards The Light).wav

Pre-gap length 0:00:00.14

Peak level 99.0 % Extraction speed 1.0 X Track quality 100.0 % Test CRC 5C3ABDDF Copy CRC 5C3ABDDF Track not present in AccurateRip database Copy OK

Track 26

Filename D:\Upload\Qigang Chen - The Flowers Of War (2011) [FLAC] {Original EU, LC 06868}\26 - Love Theme IV.wav

Peak level 56.7 % Extraction speed 0.9 X Track quality 100.0 % Test CRC 846CC445 Copy CRC 846CC445 Track not present in AccurateRip database Copy OK

None of the tracks are present in the AccurateRip database

No errors occurred

End of status report

==== Log checksum EDDA5FD01D3643467D7ACBA92728576B1B37197C51A9BB87CF089EE3D52E80B3 ====
REM GENRE SoundtrackREM DATE 2011REM DISCID 6B0C1C1AREM COMMENT "ExactAudioCopy v1.0b2"PERFORMER "Qigang Chen"TITLE "The Flowers Of War"FILE "01 - Love Theme I (Opening Credits).wav" WAVE TRACK 01 AUDIO TITLE "Love Theme I (Opening Credits)" PERFORMER "Qigang Chen" INDEX 01 00:00:00FILE "02 - Qin Huai Legend I (Falling In Love).wav" WAVE TRACK 02 AUDIO TITLE "Qin Huai Legend I (Falling In Love)" PERFORMER "Qigang Chen" INDEX 01 00:00:00 TRACK 03 AUDIO TITLE "Redemption II (Tragedy In The Church)" PERFORMER "Qigang Chen" INDEX 00 03:17:22FILE "03 - Redemption II (Tragedy In The Church).wav" WAVE INDEX 01 00:00:00 TRACK 04 AUDIO TITLE "Qin Huai Legend V (Parting Exhortation)" PERFORMER "Qigang Chen" INDEX 00 01:22:20FILE "04 - Qin Huai Legend V (Parting Exhortation).wav" WAVE INDEX 01 00:00:00FILE "05 - They Are At Peace I (Death Of Commander Li).wav" WAVE TRACK 05 AUDIO TITLE "They Are At Peace I (Death Of Commander Li)" PERFORMER "Qigang Chen" INDEX 01 00:00:00 TRACK 06 AUDIO TITLE "Qin Huai Legend II (Bloodstained Strings)" PERFORMER "Qigang Chen" INDEX 00 01:13:58FILE "06 - Qin Huai Legend II (Bloodstained Strings).wav" WAVE INDEX 01 00:00:00 TRACK 07 AUDIO TITLE "Love Theme II (State Of Mind)" PERFORMER "Qigang Chen" INDEX 00 01:22:51FILE "07 - Love Theme II (State Of Mind).wav" WAVE INDEX 01 00:00:00 TRACK 08 AUDIO TITLE "Redemption V (Tragedy In The Church)" PERFORMER "Qigang Chen" INDEX 00 01:11:34FILE "08 - Redemption V (Tragedy In The Church).wav" WAVE INDEX 01 00:00:00 TRACK 09 AUDIO TITLE "Angels We Have Heard On High" PERFORMER "Qigang Chen" INDEX 00 02:35:44FILE "09 - Angels We Have Heard On High.wav" WAVE INDEX 01 00:00:00 TRACK 10 AUDIO TITLE "Comfort And Hope I (Tragedy In The Church)" PERFORMER "Qigang Chen" INDEX 00 00:50:35FILE "10 - Comfort And Hope I (Tragedy In The Church).wav" WAVE INDEX 01 00:00:00 TRACK 11 AUDIO TITLE "Redemption III" PERFORMER "Qigang Chen" INDEX 00 05:27:37FILE "11 - Redemption III.wav" WAVE INDEX 01 00:00:00 TRACK 12 AUDIO TITLE "Virgin" PERFORMER "Qigang Chen" INDEX 00 01:10:56FILE "12 - Virgin.wav" WAVE INDEX 01 00:00:00 TRACK 13 AUDIO TITLE "Requiem And Redemption (Commander Li And The Children)" PERFORMER "Qigang Chen" INDEX 00 02:04:49FILE "13 - Requiem And Redemption (Commander Li And The Children).wav" WAVE INDEX 01 00:00:00 TRACK 14 AUDIO TITLE "Qin Huai Legend VII (Geisha's Chorus)" PERFORMER "Qigang Chen" INDEX 00 02:12:46FILE "14 - Qin Huai Legend VII (Geisha's Chorus).wav" WAVE INDEX 01 00:00:00 TRACK 15 AUDIO TITLE "Ruins" PERFORMER "Qigang Chen" INDEX 00 01:41:53FILE "15 - Ruins.wav" WAVE INDEX 01 00:00:00 TRACK 16 AUDIO TITLE "They Are At Peace II (Brutality)" PERFORMER "Qigang Chen" INDEX 00 01:21:61FILE "16 - They Are At Peace II (Brutality).wav" WAVE INDEX 01 00:00:00FILE "17 - Love Theme III (Descent From Heaven).wav" WAVE TRACK 17 AUDIO TITLE "Love Theme III (Descent From Heaven)" PERFORMER "Qigang Chen" INDEX 01 00:00:00 TRACK 18 AUDIO TITLE "Comfort And Hope II" PERFORMER "Qigang Chen" INDEX 00 01:53:09FILE "18 - Comfort And Hope II.wav" WAVE INDEX 01 00:00:00 TRACK 19 AUDIO TITLE "Heavenly Voice I" PERFORMER "Qigang Chen" INDEX 00 01:57:70FILE "19 - Heavenly Voice I.wav" WAVE INDEX 01 00:00:00FILE "20 - Qin Huai Legend III (Entering The Gate).wav" WAVE TRACK 20 AUDIO TITLE "Qin Huai Legend III (Entering The Gate)" PERFORMER "Qigang Chen" INDEX 01 00:00:00 TRACK 21 AUDIO TITLE "Qin Huai Legend VI (Sisterhood)" PERFORMER "Qigang Chen" INDEX 00 01:24:58FILE "21 - Qin Huai Legend VI (Sisterhood).wav" WAVE INDEX 01 00:00:00 TRACK 22 AUDIO TITLE "Love Theme V (Parting)" PERFORMER "Qigang Chen" INDEX 00 01:14:04FILE "22 - Love Theme V (Parting).wav" WAVE INDEX 01 00:00:00FILE "23 - Heavenly Voice II.wav" WAVE TRACK 23 AUDIO TITLE "Heavenly Voice II" PERFORMER "Qigang Chen" INDEX 01 00:00:00 TRACK 24 AUDIO TITLE "Qin Huai Legend IV" PERFORMER "Qigang Chen" INDEX 00 01:52:56FILE "24 - Qin Huai Legend IV.wav" WAVE INDEX 01 00:00:00 TRACK 25 AUDIO TITLE "Comfort And Hope III (Running Towards The Light)" PERFORMER "Qigang Chen" INDEX 00 03:28:45FILE "25 - Comfort And Hope III (Running Towards The Light).wav" WAVE INDEX 01 00:00:00FILE "26 - Love Theme IV.wav" WAVE TRACK 26 AUDIO TITLE "Love Theme IV" PERFORMER "Qigang Chen" INDEX 01 00:00:00







Трекер:  [ 12-Июн-2013 16:40 ]

  

Скачать .torrent

Размер .torrent файла 19 KB


Размер: 216 MB
Хэш (hash) релиза: 77a84dfb0053266cf28bbfac9919fb81b10c36c4

bot

Топик был перенесен в форум Саундтреки к фильмам и мультфильмам (lossless)

Перенес Galfimbul

Хотите добавить комментарий к записи скачать торрент Цветы Войны The Flowers Of War

!Обратная связь