Скачать через торрент музыку Reba McEntire feat. Kelly Clarkson - Because of You бесплатно без регистрации torrent

Если у вас наблюдаются проблемы со скриншотами, переходом по ссылками, скачиванием торрентов - проблемы в блокировщике рекламы AdBlock. #хорошегоДня!


Статистика раздачи
Размер:  178 MB   |    Зарегистрирован:  4 года 6 месяцев   |    .torrent скачан:  28 раз   |   
Раздают:  1  
   
Загрузка...
 
Автор Сообщение

Galfimbul

avatar Galfimbul


Reba McEntire feat. Kelly Clarkson - Because of You

Страна: USA
Жанр: Country|Pop
Продолжительность: 03:41
Год выпуска: 2007

Источник: скачано из сети

Доп. информация:
<a href="http://www.myspace.com/rebamcentire#!" class="postLink"> </a>
[url=http://http://рутраскер/forum/viewtopic.php?t=3906359]Video Gold I [2006] [DVD5][/url]
[url=http://http://рутраскер/forum/viewtopic.php?t=3857799]Video Gold II [2006] [DVD5][/url]
[url=http://http://рутраскер/forum/viewtopic.php?t=1909851]Starting Over [1995] [lossless][/url]
[url=http://http://рутраскер/forum/viewtopic.php?t=3527587]Reba Duets [2007] [lossless][/url]
[url=http://http://рутраскер/forum/viewtopic.php?t=3527629]Keep On Loving You [2009] [lossless][/url]
[url=http://http://рутраскер/forum/viewtopic.php?t=692752]Discography [1977-2007] [lossy][/url]
[url=http://http://рутраскер/forum/viewtopic.php?t=3906798]All The Women I Am [2010] [lossy][/url]
Качество: PromoDVD
Контейнер: VOB
Видео кодек: MPEG2
Аудио кодек: PCM
Видео: MPEG2 | 720x480 [4:3] | 5059 kbps | 29.970 fps
Аудио: PCM | 1536 kbps | 2 ch | 48 kHz
Общее
Полное имя : D:\Torrents\rutracker\video\Reba McEntire - Because of You [Kelly Clarkson].vob
Формат : MPEG-PS
Размер файла : 178 Мбайт
Продолжительность : 3 м. 41 с.
Режим общего битрейта : Переменный
Общий поток : 6729 Кбит/сек
Библиотека кодирования : encoded by TMPGEnc 3.0 XPress Version. 3.0.4.24

Видео
Идентификатор : 224 (0xE0)
Формат : MPEG Video
Версия формата : Version 2
Профиль формата : Main@Main
Параметр BVOP формата : Да
Параметр матрицы формата : Выборочная
Параметр GOP формата : M=3, N=16
Продолжительность : 3 м. 41 с.
Вид битрейта : Переменный
Битрейт : 5059 Кбит/сек
Максимальный битрейт : 8000 Кбит/сек
Ширина : 720 пикселей
Высота : 480 пикселей
Соотношение сторон : 4:3
Частота кадров : 29,970 кадров/сек
Стандарт вещания : NTSC
Цветовое пространство : YUV
Субдискретизация насыщенности : 4:2:0
Битовая глубина : 8 бит
Тип развёртки : Чересстрочная
Порядок развёртки : Верхнее поле первое
Метод сжатия : С потерями
Бит/(Пиксели*Кадры) : 0.488
Размер потока : 134 Мбайт (75%)
Библиотека кодирования : TMPGEnc 3.0 XPress Version. 3.0.4.24

Аудио
Идентификатор : 189 (0xBD)-160 (0xA0)
Формат : PCM
Параметр Endianness формата : Big
Параметр Sign формата : Signed
Режим смешивания : DVD-Video
Продолжительность : 3 м. 41 с.
Вид битрейта : Постоянный
Битрейт : 1536 Кбит/сек
Каналы : 2 канала
Расположение каналов : Front: L R
Частота : 48,0 КГц
Битовая глубина : 16 бит
Размер потока : 40,6 Мбайт (23%)

Меню
Lizel за Because Of You


Трекер:  [ 20-Мар-2013 16:51 ]

  

Скачать .torrent

Размер .torrent файла 14 KB


Размер: 178 MB
Хэш (hash) релиза: 2c169a95b958f35ea8baecb38406229c9eb15bd8

Еще никто не оставлял запись к записи скачать торрент Reba McEntire feat. Kelly Clarkson - Because of You . Будь первым!

!Обратная связь