Скачать через торрент Наруто Пересечение дорог Naruto The Cross Roads бесплатно Аниме Все серии на русском torrent

Если у вас наблюдаются проблемы со скриншотами, переходом по ссылками, скачиванием торрентов - проблемы в блокировщике рекламы AdBlock. #хорошегоДня!


Статистика раздачи
Размер:  642 MB   |    Зарегистрирован:  4 года 8 месяцев   |    .torrent скачан:  32 раза   |   
Раздают:  1  
   
Загрузка...
 
Автор Сообщение

Polarnik

avatar Polarnik


Наруто Пересечение дорог / Naruto The Cross Roads / Za Kurosurōzu[/b
[b]Страна
: Япония/США
Год выпуска: 2009 г.
Жанр: Приключения, Комедия, Боевые искусства, Сёнэн
Тип: OVA
Продолжительность: 27 минут
Режиссер: Дате Хаято
Студия:
Кол-во эпизодов:Один
Описание: Это OVA по Наруто выполненная в 3D графике. События происходят спустя некоторое время после сражения в Стране Волн против Забузы и перед экзаменом на Чунина. Команде Какаши поручена новая миссия, в которой они отправляются на поиски пропавшего человека по имени Генмай из деревни Инахо. Но суть овы не в этом, так как команда только успев выйти из Конохи, сразу же попадает в беду, причина которой – охота на Саске.
Доп. информация:Naruto: The Crossroads (ザ・クロスローズ, Za Kurosurōzu, "Наруто: Пересечение дорог") - шестая ОВА. Впервые показана на Jump Festa Anime Tour в 2009 году. Для ее создания использована CGI графика, как и в игре Naruto: Ultimate Ninja Storm.
Качество: HDRip
Формат видео: MP4
Совместимость с бытовыми плеерами: Нет
Видео: MPEG-4, 1280x720, 3 283 Kbps, 30.000 fps
Аудио: AAC, 110 Kbps, 32000Hz, 2 channels
Язык: Русский Любительский Дубляж (в составе контейнера)

Релиз:
Format : MPEG-4Format profile : Base MediaCodec ID : isom]File size : 642 MiBDuration : 26mn 43sOverall bit rate : 3 356 KbpsEncoded date : UTC 2012-08-28 13:59:06Tagged date : UTC 2012-08-28 13:59:06

VideoID : 1Format : AVCFormat/Info : Advanced Video CodecFormat profile : Main@L4.0Format settings, CABAC : YesFormat settings, ReFrames : 2 framesFormat settings, GOP : M=3, N=15Codec ID : avc1Codec ID/Info : Advanced Video CodingDuration : 26mn 43sBit rate mode : VariableBit rate : 13.5 MbpsWidth : 1 280 pixelsHeight : 720 pixelsDisplay aspect ratio : 16:9Frame rate mode : ConstantFrame rate : 30.000 fpsStandard : NTSCColor space : YUVChroma subsampling : 4:2:0Bit depth : 8 bitsScan type : ProgressiveBits/(Pixel*Frame) : 0.216Stream size : 620 MiB (97%)Language : EnglishEncoded date : UTC 2012-08-28 13:59:06Tagged date : UTC 2012-08-28 13:59:06Color primaries : BT.709-5, BT.1361, IEC 61966-2-4, SMPTE RP177Transfer characteristics : BT.709-5, BT.1361Matrix coefficients : BT.709-5, BT.1361, IEC 61966-2-4 709, SMPTE RP177

AudioID : 2Format : AACFormat/Info : Advanced Audio CodecFormat version : Version 4Format profile : LCFormat settings, SBR : NoCodec ID : 40Duration : 26mn 43sBit rate mode : ConstantBit rate : 110 KbpsChannel(s) : 2 channelsChannel positions : Front: L RSampling rate : 32.0 KHzStream size : 24.5 MiB (1%)Language : EnglishEncoded date : UTC 2012-08-28 13:59:06Tagged date : UTC 2012-08-28 13:59:06


Трекер:  [ 24-Фев-2013 20:57 ]

  

Скачать .torrent

Размер .torrent файла 13 KB


Размер: 642 MB
Хэш (hash) релиза: e8c6f2aad000f9ebac9b593b197da47698b7d528
Подписка на обновления:

Еще никто не оставлял запись к записи скачать торрент Наруто Пересечение дорог Naruto The Cross Roads . Будь первым!

!Обратная связь