Скачать через торрент Наруто Фильм 3 : Грандиозный переполох, бунт зверей на острове Миказуки Naruto Movie 3: Large Interest Stirred Up! Cresent Moon Islands Animal Rebellion бесплатно Аниме Все серии на русском torrent

Если у вас наблюдаются проблемы со скриншотами, переходом по ссылками, скачиванием торрентов - проблемы в блокировщике рекламы AdBlock. #хорошегоДня!


Статистика раздачи
Размер:  1.07 GB   |    Зарегистрирован:  4 года 8 месяцев   |    .torrent скачан:  34 раза   |   
Раздают:  1  
   
Загрузка...
 
Автор Сообщение

Polarnik

avatar Polarnik


Наруто Фильм 3: Грандиозный переполох, бунт зверей на острове Миказуки / Naruto Movie 3: Large Interest Stirred Up! Cresent Moon Island's Animal Rebellion
Год выпуска: 2006
Страна: Япония
Жанр: приключения, боевые искусства
Продолжительность: 90 мин.
Тип: Movie
Студия:
Режиссёр: Цуру Тосиюки
Снято по манге: Naruto
Автор оригинала: Кисимото Масаси
Дата выхода: 05.08.2006
Субтитры: Хардсаб НЕТ
Озвучивание: NIKITOS
Работа над звуком: DaveNolt
Работа над таймингом: Siferot
Перевод: BST
Релиз-группа:

Описание: Третий по счету, легкий и стремительный мувик Naruto.
События происходят после 196 эпизода в сериале, перед самым началом филеров. Наруто, Какаши, Сакура и Рок Ли получают миссию охранять принца из Земель Луны. Земля Луны отличается своим богатством, так что принц намеревается купить всё, что он встречает по пути. И когда по дороге они встречают цирк он покупает там редкого питомца, саблезубого тигра, и всех остальных животных в придачу. Теперь команде предстоит присматривать не только за принцем, но и за оравой животных.
Описание взято с animeshki
Качество: DVDRip
Формат видео: AVI
Видео: Xvid, 704х396, 23.976 кадр/сек, 1205 Кбит/сек
Аудио №1: RUS - MP3 48000 Hz, 192 kbps
Аудио №2: JAP - MP3 48000 Hz, 192 kbps
Язык Русский (в составе контейнера) ; Озвучка: (Одноголосная), NIKITOS / SHIZA
Общее
Полное имя : D:\[SHiZA Project] Naruto Movies [HWP]\[SHiZA Project] Naruto Movie 3 [RUS JAP] [HWP] [704x396 XviD] [NIKITOS].avi
Формат : AVI
Формат/Информация : Audio Video Interleave
Профиль формата : OpenDML
Размер файла : 1,07 Гбайт
Продолжительность : 1 ч. 34 м.
Общий поток : 1616 Кбит/сек
Программа кодирования : Lavf53.10.0

Видео
Идентификатор : 0
Формат : MPEG-4 Visual
Профиль формата : Simple@L3
Параметр BVOP формата : Нет
Параметр QPel формата : Нет
Параметр GMC формата : Без точки перехода
Параметр матрицы формата : Default (H.263)
Идентификатор кодека : XVID
Идентификатор кодека/Подсказка : XviD
Продолжительность : 1 ч. 34 м.
Битрейт : 1205 Кбит/сек
Ширина : 704 пикселя
Высота : 396 пикселей
Соотношение сторон : 16:9
Частота кадров : 23,976 кадра/сек
Цветовое пространство : YUV
Субдискретизация насыщенности : 4:2:0
Битовая глубина : 8 бит
Тип развёртки : Прогрессивная
Метод сжатия : С потерями
Бит/(Пиксели*Кадры) : 0.180
Размер потока : 817 Мбайт (75%)
Библиотека кодирования : XviD 64

Аудио #1
Идентификатор : 1
Формат : MPEG Audio
Версия формата : Version 1
Профиль формата : Layer 3
Идентификатор кодека : 55
Идентификатор кодека/Подсказка : MP3
Продолжительность : 1 ч. 34 м.
Вид битрейта : Постоянный
Битрейт : 192 Кбит/сек
Каналы : 2 канала
Частота : 48,0 КГц
Метод сжатия : С потерями
Размер потока : 130 Мбайт (12%)
Выравнивание : Соединение по промежуткам
Продолжительность промежутка : 24 мс. (0,58 видеокадр)
Заголовок : NIKITOS from SHiZA
Библиотека кодирования : LAME3.98.4

Аудио #2
Идентификатор : 2
Формат : MPEG Audio
Версия формата : Version 1
Профиль формата : Layer 3
Идентификатор кодека : 55
Идентификатор кодека/Подсказка : MP3
Продолжительность : 1 ч. 34 м.
Вид битрейта : Постоянный
Битрейт : 192 Кбит/сек
Каналы : 2 канала
Частота : 48,0 КГц
Метод сжатия : С потерями
Размер потока : 130 Мбайт (12%)
Выравнивание : Соединение по промежуткам
Продолжительность промежутка : 24 мс. (0,58 видеокадр)
Заголовок : JAP Original


Трекер:  [ 24-Фев-2013 21:02 ]

  

Скачать .torrent

Размер .torrent файла 11 KB


Размер: 1.07 GB
Хэш (hash) релиза: c9562d9aa3f4c2a813c1e8635ea7e6082c02cf9b
Подписка на обновления:

Еще никто не оставлял запись к записи скачать торрент Наруто Фильм 3 : Грандиозный переполох, бунт зверей на острове Миказуки Naruto Movie 3: Large Interest Stirred Up! Cresent Moon Islands Animal Rebellion . Будь первым!

!Обратная связь