Скачать через торрент Наруто Фильм 4: Ураганные Хроники Наруто: Фильм 1 Naruto Movie 4: Gekijouban Naruto Shippuuden Naruto the Movie 1 бесплатно Аниме Все серии на русском torrent

Если у вас наблюдаются проблемы со скриншотами, переходом по ссылками, скачиванием торрентов - проблемы в блокировщике рекламы AdBlock. #хорошегоДня!


Статистика раздачи
Размер:  1.09 GB   |    Зарегистрирован:  4 года 7 месяцев   |    .torrent скачан:  45 раз   |   
Раздают:  1  
   
Загрузка...
 
Автор Сообщение

Polarnik

avatar Polarnik


Наруто Фильм 4: Ураганные Хроники Наруто: Фильм 1 / Naruto Movie 4: Gekijouban Naruto Shippuuden Naruto the Movie 1
Год выпуска: 2007
Страна: Япония
Жанр: приключения, комедия, боевые искусства, сёнэн
Продолжительность: 95 мин.
Тип: Movie
Студия:
Режиссёр: Камэгаки Хадзимэ
Снято по манге: Naruto
Автор оригинала: Кисимото Масаси
Дата выхода: 04.08.2007
Субтитры: Хардсаб НЕТ
Озвучивание: NIKITOS
Работа над звуком: DaveNolt
Работа над таймингом: RedZef
Перевод: BST
Релиз-группа:

Описание: Ниндзя-отступники, адепты Темного искусства, в поисках силы и власти пробуждают древнего демона Морё, который поднимает армию терракотовых воинов и приступает к завоеванию мира. Каменные воины легко сметают заставы и целые крепости, а темные ниндзя, которыми командует сам Морё, кажутся неуязвимыми. У Пяти стран одна надежда – пока Морё не обрел свое тело, скрытое в подземном храме в Стране Болот, он все еще не вошел в полную мощь. Лучшие силы Конохи брошены на то, чтобы задержать врагов, а тем временем Наруто, Ли и Сакура под руководством Нэдзи отправляются на тайную миссию – защитить молодую верховную жрицу Сион, которая одна способна снова запечатать пришельца из потустороннего мира. Но миньоны великого демона не дремлют, а сама Сион внезапно предсказывает Наруто скорую смерть…

© Hollow, World Art
Качество: DVDRip
Формат видео: AVI
Видео: Xvid, 704х396, 23.976 кадр/сек, 1234 Кбит/сек
Аудио №1: RUS - MP3 48000 Hz, 192 kbps
Аудио №2: JAP - MP3 48000 Hz, 192 kbps
Язык Русский (в составе контейнера) ; Озвучка: (Одноголосная), NIKITOS / SHIZA
Общее
Полное имя : D:\[SHiZA Project] Naruto Movies [HWP]\[SHiZA Project] Naruto Shippuuden Movie 1 [RUS JAP] [HWP] [704x396 XviD] [NIKITOS].avi
Формат : AVI
Формат/Информация : Audio Video Interleave
Профиль формата : OpenDML
Размер файла : 1,09 Гбайт
Продолжительность : 1 ч. 34 м.
Общий поток : 1645 Кбит/сек
Программа кодирования : Lavf53.10.0

Видео
Идентификатор : 0
Формат : MPEG-4 Visual
Профиль формата : Simple@L3
Параметр BVOP формата : Нет
Параметр QPel формата : Нет
Параметр GMC формата : Без точки перехода
Параметр матрицы формата : Default (H.263)
Идентификатор кодека : XVID
Идентификатор кодека/Подсказка : XviD
Продолжительность : 1 ч. 34 м.
Битрейт : 1234 Кбит/сек
Ширина : 704 пикселя
Высота : 396 пикселей
Соотношение сторон : 16:9
Частота кадров : 23,976 кадра/сек
Цветовое пространство : YUV
Субдискретизация насыщенности : 4:2:0
Битовая глубина : 8 бит
Тип развёртки : Прогрессивная
Метод сжатия : С потерями
Бит/(Пиксели*Кадры) : 0.185
Размер потока : 837 Мбайт (75%)
Заголовок : Naruto Movie 4
Библиотека кодирования : XviD 64

Аудио #1
Идентификатор : 1
Формат : MPEG Audio
Версия формата : Version 1
Профиль формата : Layer 3
Идентификатор кодека : 55
Идентификатор кодека/Подсказка : MP3
Продолжительность : 1 ч. 34 м.
Вид битрейта : Постоянный
Битрейт : 192 Кбит/сек
Каналы : 2 канала
Частота : 48,0 КГц
Метод сжатия : С потерями
Размер потока : 130 Мбайт (12%)
Выравнивание : Соединение по промежуткам
Продолжительность промежутка : 24 мс. (0,58 видеокадр)
Заголовок : NIKITOS from SHiZA
Библиотека кодирования : LAME3.98.4

Аудио #2
Идентификатор : 2
Формат : MPEG Audio
Версия формата : Version 1
Профиль формата : Layer 3
Идентификатор кодека : 55
Идентификатор кодека/Подсказка : MP3
Продолжительность : 1 ч. 34 м.
Вид битрейта : Постоянный
Битрейт : 192 Кбит/сек
Каналы : 2 канала
Частота : 48,0 КГц
Метод сжатия : С потерями
Размер потока : 130 Мбайт (12%)
Выравнивание : Соединение по промежуткам
Продолжительность промежутка : 24 мс. (0,58 видеокадр)
Заголовок : JAP Original
Библиотека кодирования : LAME3.98.4


Трекер:  [ 24-Фев-2013 21:03 ]

  

Скачать .torrent

Размер .torrent файла 11 KB


Размер: 1.09 GB
Хэш (hash) релиза: 71710e7cd3f5781a06b3e0ca6bd63cfb3bc57382
Подписка на обновления:

Торренты, похожие на Наруто Фильм 4: Ураганные Хроники Наруто: Фильм 1 Naruto Movie 4: Gekijouban Naruto Shippuuden Naruto the Movie 1 скачать торрент

Форум Название Автор Размер S L Добавлен
Наруто | Naruto ·· Наруто Фильм 4: Ураганные Хроники Наруто: Фильм 1 / Gekijouban Naruto Shippuuden Naruto the Movie 1 [Movie] [без хардсаба] [RUS(int), JAP+SUB] [2007 г., приключения, комедия, боевые искусства, сёнэн, BDRip] [1080p] Polarnik 45898122334.27 GB 0 0 1361723399

19:29

24-Фев-13

Еще никто не оставлял запись к записи скачать торрент Наруто Фильм 4: Ураганные Хроники Наруто: Фильм 1 Naruto Movie 4: Gekijouban Naruto Shippuuden Naruto the Movie 1 . Будь первым!

!Обратная связь