Скачать через торрент Наруто Фильм 5: Ураганные Хроники Наруто Фильм 2: Узы Naruto Movie 5: Gekijouban Naruto Shippuuden Naruto the Movie 2: Kizuna бесплатно Аниме Все серии на русском torrent

Если у вас наблюдаются проблемы со скриншотами, переходом по ссылками, скачиванием торрентов - проблемы в блокировщике рекламы AdBlock. #хорошегоДня!


Статистика раздачи
Размер:  1.19 GB   |    Зарегистрирован:  4 года 5 месяцев   |    .torrent скачан:  75 раз   |   
Раздают:  1  
   
Загрузка...
 
Автор Сообщение

Polarnik

avatar Polarnik


Наруто Фильм 5: Ураганные Хроники Наруто Фильм 2: Узы / Naruto Movie 5: Gekijouban Naruto Shippuuden Naruto the Movie 2: Kizuna
Год выпуска: 2008
Страна: Япония
Жанр: приключения, комедия, боевые искусства, сёнэн
Продолжительность: 93 мин.
Тип: Movie
Студия:
Режиссёр: Камэгаки Хадзимэ
Снято по манге: Naruto
Автор оригинала: Кисимото Масаси
Дата выхода: 02.08.2008
Субтитры: Хардсаб НЕТ
Озвучивание: NIKITOS
Работа над звуком: DaveNolt
Работа над таймингом: RedZef
Перевод: BST
Релиз-группа:

Описание: По старым долгам надо платить. И вновь неведомый враг предъявляет Конохе кровавый счет, вновь гибнут люди, и спасение Страны Огня зависит от горстки наших старых знакомых – Наруто, его друзей, учителей и старших товарищей. Едва пережив нападение на Листву, Наруто, Сакура и Хината вместе с целителем Синно и его ученицей Амару направляются на помощь людям приграничной деревни. В пути их ждут не только враги и битвы, но и крушение надежд, боль предательства. Возможно ли, что Синно – тот великий учитель, за тайнами которого охотится сам Оротимару? И если Саске и Наруто встретятся вновь, будут ли они стоять рядом или напротив друг друга?

Это повесть о неразрывных узах, которые связывают земляков и друзей, учителей и учеников, о тех связях, которые сильнее времени и расстояния, непонимания и гордыни. Именно так живет Деревня Листвы, без них не было бы самого популярного в мире аниме-сериала!

© Hollow, World Art
Качество: DVDRip
Формат видео: AVI
Видео: Xvid, 704х396, 23.976 кадр/сек, 1398 Кбит/сек
Аудио №1: RUS - MP3 48000 Hz, 192 kbps
Аудио №2: JAP - MP3 48000 Hz, 192 kbps
Язык Русский (в составе контейнера) ; Озвучка: (Одноголосная), NIKITOS / SHIZA
Общее
Полное имя : D:\[SHiZA Project] Naruto Movies [HWP]\[SHiZA Project] Naruto Shippuuden Movie 2 [RUS JAP] [HWP] [704x396 XviD] [NIKITOS].avi
Формат : AVI
Формат/Информация : Audio Video Interleave
Профиль формата : OpenDML
Размер файла : 1,19 Гбайт
Продолжительность : 1 ч. 38 м.
Общий поток : 1731 Кбит/сек
Программа кодирования : Lavf53.10.0

Видео
Идентификатор : 0
Формат : MPEG-4 Visual
Профиль формата : Simple@L3
Параметр BVOP формата : Нет
Параметр QPel формата : Нет
Параметр GMC формата : Без точки перехода
Параметр матрицы формата : Default (H.263)
Идентификатор кодека : XVID
Идентификатор кодека/Подсказка : XviD
Продолжительность : 1 ч. 33 м.
Битрейт : 1398 Кбит/сек
Ширина : 704 пикселя
Высота : 396 пикселей
Соотношение сторон : 1,850
Частота кадров : 23,976 кадра/сек
Цветовое пространство : YUV
Субдискретизация насыщенности : 4:2:0
Битовая глубина : 8 бит
Тип развёртки : Прогрессивная
Метод сжатия : С потерями
Бит/(Пиксели*Кадры) : 0.209
Размер потока : 934 Мбайт (76%)
Библиотека кодирования : XviD 64

Аудио #1
Идентификатор : 1
Формат : MPEG Audio
Версия формата : Version 1
Профиль формата : Layer 3
Идентификатор кодека : 55
Идентификатор кодека/Подсказка : MP3
Продолжительность : 1 ч. 38 м.
Вид битрейта : Постоянный
Битрейт : 192 Кбит/сек
Каналы : 2 канала
Частота : 48,0 КГц
Метод сжатия : С потерями
Размер потока : 136 Мбайт (11%)
Выравнивание : Соединение по промежуткам
Продолжительность промежутка : 23 мс. (0,54 видеокадр)
Заголовок : NIKITOS from SHiZA
Библиотека кодирования : LAME3.98.4

Аудио #2
Идентификатор : 2
Формат : MPEG Audio
Версия формата : Version 1
Профиль формата : Layer 3
Идентификатор кодека : 55
Идентификатор кодека/Подсказка : MP3
Продолжительность : 1 ч. 38 м.
Вид битрейта : Постоянный
Битрейт : 192 Кбит/сек
Каналы : 2 канала
Частота : 48,0 КГц
Метод сжатия : С потерями
Размер потока : 136 Мбайт (11%)
Выравнивание : Соединение по промежуткам
Продолжительность промежутка : 23 мс. (0,54 видеокадр)
Заголовок : JAP Original
Библиотека кодирования : LAME3.98.4


Трекер:  [ 24-Фев-2013 21:03 ]

  

Скачать .torrent

Размер .torrent файла 12 KB


Размер: 1.19 GB
Хэш (hash) релиза: dd9b99ed0f1233279b47385ce23aa5b5ce76655b
Подписка на обновления:

Еще никто не оставлял запись к записи скачать торрент Наруто Фильм 5: Ураганные Хроники Наруто Фильм 2: Узы Naruto Movie 5: Gekijouban Naruto Shippuuden Naruto the Movie 2: Kizuna . Будь первым!

!Обратная связь