Скачать через торрент Наруто Фильм 6: Ураганные Хроники Наруто Фильм 3: Наследники воли Огня Naruto Movie 6: Naruto Shippuuden Naruto the Movie 3: The Will of Fire Still Burn бесплатно Аниме Все серии на русском torrent

Если у вас наблюдаются проблемы со скриншотами, переходом по ссылками, скачиванием торрентов - проблемы в блокировщике рекламы AdBlock. #хорошегоДня!


Статистика раздачи
Размер:  1023 MB   |    Зарегистрирован:  4 года 5 месяцев   |    .torrent скачан:  54 раза   |   
Раздают:  1  
   
Загрузка...
 
Автор Сообщение

Polarnik

avatar Polarnik


Наруто Фильм 6: Ураганные Хроники Наруто Фильм 3: Наследники воли Огня / Naruto Movie 6: Gekijouban Naruto Shippuuden Naruto the Movie 3: The Will of Fire Still Burns
Год выпуска: 2009
Страна: Япония
Жанр: приключения, комедия, боевые искусства, сёнэн
Продолжительность: 96 мин.
Тип: Movie
Студия:
Режиссёр: Мурата Масахико
Снято по манге: Naruto
Автор оригинала: Кисимото Масаси
Дата выхода: 01.08.2009
Субтитры: Хардсаб НЕТ
Озвучивание: NIKITOS
Работа над звуком: DaveNolt
Работа над таймингом: San4Ees
Перевод: BST
Релиз-группа:

Описание: В Пяти странах никогда не переводятся персонажи, желающие возвыситься и достичь абсолютной власти за счет других. На дворе очередной кризис - синоби с Кровным даром начали пропадать из скрытых деревень Травы, Камня, Облака и Песка. Не тронута только деревня Листвы, что вызывает резонные подозрения у остальных четырех наций. Впрочем, разведка Конохи быстро вычислила, что следы пропавших ведут на гору Сумисэн. Вот только после отчаянной и неудачной попытки добыть информацию, в небе над деревней Листвы явилась гигантская фигура, возвестившая начало новой Великой войны ниндзя.

Коноха в беде. Соседи не слушают доводов разума и стягивают войска, а князь Страны Огня приказывает Цунадэ быстрее найти истинного виновника или приготовиться к уничтожению. Собрав воедино все имеющиеся сведения, Хатакэ Какаси решает пожертвовать собой ради существования деревни. Лучшие стратеги Листвы и Песка не смогли найти иного плана, и, хоть с тяжким сердцем, но одобрили его выбор. Но что значит холодная логика против одного-единственного ученика Какаси-сэнсэя, парня в оранжевом, который не приемлет принцип «меньшего зла»? Ведь в мире Наруто побеждают те, кто голосует сердцем!

© Hollow, World Art
Качество: DVDRip
Формат видео: AVI
Видео: Xvid, 704х396, 23.976 кадр/сек, 1090 Кбит/сек
Аудио №1: RUS - MP3 48000 Hz, 192 kbps
Аудио №2: JAP - MP3 48000 Hz, 192 kbps
Язык Русский (в составе контейнера) ; Озвучка: (Одноголосная), NIKITOS / SHIZA
Общее
Полное имя : D:\[SHiZA Project] Naruto Movies [HWP]\[SHiZA Project] Naruto Shippuuden Movie 3 [RUS JAP] [HWP] [704x396 XviD] [NIKITOS].avi
Формат : AVI
Формат/Информация : Audio Video Interleave
Размер файла : 1023 Мбайт
Продолжительность : 1 ч. 35 м.
Общий поток : 1495 Кбит/сек
Программа кодирования : Lavf53.10.0

Видео
Идентификатор : 0
Формат : MPEG-4 Visual
Профиль формата : Simple@L3
Параметр BVOP формата : Нет
Параметр QPel формата : Нет
Параметр GMC формата : Без точки перехода
Параметр матрицы формата : Default (H.263)
Идентификатор кодека : XVID
Идентификатор кодека/Подсказка : XviD
Продолжительность : 1 ч. 35 м.
Битрейт : 1090 Кбит/сек
Ширина : 704 пикселя
Высота : 396 пикселей
Соотношение сторон : 16:9
Частота кадров : 23,976 кадра/сек
Цветовое пространство : YUV
Субдискретизация насыщенности : 4:2:0
Битовая глубина : 8 бит
Тип развёртки : Прогрессивная
Метод сжатия : С потерями
Бит/(Пиксели*Кадры) : 0.163
Размер потока : 746 Мбайт (73%)
Библиотека кодирования : XviD 64

Аудио #1
Идентификатор : 1
Формат : MPEG Audio
Версия формата : Version 1
Профиль формата : Layer 3
Идентификатор кодека : 55
Идентификатор кодека/Подсказка : MP3
Продолжительность : 1 ч. 35 м.
Вид битрейта : Постоянный
Битрейт : 192 Кбит/сек
Каналы : 2 канала
Частота : 48,0 КГц
Метод сжатия : С потерями
Размер потока : 131 Мбайт (13%)
Выравнивание : Соединение по промежуткам
Продолжительность промежутка : 24 мс. (0,58 видеокадр)
Заголовок : NIKITOS from SHiZA
Библиотека кодирования : LAME3.98.4

Аудио #2
Идентификатор : 2
Формат : MPEG Audio
Версия формата : Version 1
Профиль формата : Layer 3
Идентификатор кодека : 55
Идентификатор кодека/Подсказка : MP3
Продолжительность : 1 ч. 35 м.
Вид битрейта : Постоянный
Битрейт : 192 Кбит/сек
Каналы : 2 канала
Частота : 48,0 КГц
Метод сжатия : С потерями
Размер потока : 131 Мбайт (13%)
Выравнивание : Соединение по промежуткам
Продолжительность промежутка : 24 мс. (0,58 видеокадр)
Заголовок : JAP Original
Библиотека кодирования : LAME3.98.4


Трекер:  [ 24-Фев-2013 21:04 ]

  

Скачать .torrent

Размер .torrent файла 20 KB


Размер: 1023 MB
Хэш (hash) релиза: 5a13b369585e6159effe20a88b0c25d100b4b0dd
Подписка на обновления:

Еще никто не оставлял запись к записи скачать торрент Наруто Фильм 6: Ураганные Хроники Наруто Фильм 3: Наследники воли Огня Naruto Movie 6: Naruto Shippuuden Naruto the Movie 3: The Will of Fire Still Burn . Будь первым!

!Обратная связь