Скачать через торрент Наруто Фильм 7: Ураганные Хроники Наруто Фильм 4: Затерянная Башня Naruto Movie 7: Gekijouban Naruto Shippuuden Movie 4: The Lost Tower бесплатно Аниме Все серии на русском torrent

Если у вас наблюдаются проблемы со скриншотами, переходом по ссылками, скачиванием торрентов - проблемы в блокировщике рекламы AdBlock. #хорошегоДня!


Статистика раздачи
Размер:  864 MB   |    Зарегистрирован:  4 года 7 месяцев   |    .torrent скачан:  66 раз   |   
Раздают:  1  
   
Загрузка...
 
Автор Сообщение

Polarnik

avatar Polarnik


Наруто Фильм 7: Ураганные Хроники Наруто Фильм 4: Затерянная Башня
Naruto Movie 7: Gekijouban Naruto Shippuuden Movie 4: The Lost Tower
Год выпуска: 2010
Страна: Япония
Жанр: приключения, боевые искусства
Продолжительность: 85 мин.
Тип: Movie
Студия:
Режиссёр: Мурата Масахико
Снято по манге: Naruto
Автор оригинала: Кисимото Масаси
Субтитры: Хардсаб НЕТ
Источник видео: Hatsuyuki-Tsuki
Озвучивание: NIKITOS
Звук и Тайминг: DaveNolt
Перевод: Firegorn Team
Переводчики: Редгар - Огненный Горн & Olex
Редактор: KingMaster
Релиз-группа:

Описание: Седьмой полнометражный фильм о Наруто или четвертый фильм Naruto Shippuuden. На нашего всеми любимого Наруто возложена миссия захватить Мукаде (кто не помнит кто такой Мукаде напомню. Мукаде был одним из шпионов Сасори) пропавшего без вести. Наруто Узумаки отправляется к руинам долины "Оурен" и находит там Мукаде. Цель Мукаде - найти источник некой силы, что дремлет в этих руинах. Мукаде пытается воспользоваться этой силой и по не осторожности мощный луч света охватывает Наруто и отправляет его в прошлое, на 20 лет назад. Когда Наруто просыпается, он встречает четвертого Хокаге Минато Намиказе!
Качество: DVDRip
Формат видео: AVI
Видео: Xvid, 704х396, 23.976 кадр/сек, 1014 Кбит/сек
Аудио №1: RUS - MP3 48000 Hz, 192 kbps
Аудио №2: JAP - MP3 48000 Hz, 192 kbps
Язык Русский (в составе контейнера) ; Озвучка: (Одноголосная), NIKITOS / SHIZA
Общее
Полное имя : D:\[SHiZA Project] Naruto Movies [HWP]\[SHiZA Project] Naruto Shippuuden Movie 4 [RUS JAP] [HWP] [704x396 XviD] [NIKITOS].avi
Формат : AVI
Формат/Информация : Audio Video Interleave
Размер файла : 864 Мбайт
Продолжительность : 1 ч. 25 м.
Общий поток : 1418 Кбит/сек
Программа кодирования : Lavf53.10.0

Видео
Идентификатор : 0
Формат : MPEG-4 Visual
Профиль формата : Simple@L3
Параметр BVOP формата : Нет
Параметр QPel формата : Нет
Параметр GMC формата : Без точки перехода
Параметр матрицы формата : Default (H.263)
Идентификатор кодека : XVID
Идентификатор кодека/Подсказка : XviD
Продолжительность : 1 ч. 25 м.
Битрейт : 1014 Кбит/сек
Ширина : 704 пикселя
Высота : 396 пикселей
Соотношение сторон : 1,852
Частота кадров : 23,976 кадра/сек
Цветовое пространство : YUV
Субдискретизация насыщенности : 4:2:0
Битовая глубина : 8 бит
Тип развёртки : Прогрессивная
Метод сжатия : С потерями
Бит/(Пиксели*Кадры) : 0.152
Размер потока : 618 Мбайт (71%)
Библиотека кодирования : XviD 64

Аудио #1
Идентификатор : 1
Формат : MPEG Audio
Версия формата : Version 1
Профиль формата : Layer 3
Идентификатор кодека : 55
Идентификатор кодека/Подсказка : MP3
Продолжительность : 1 ч. 25 м.
Вид битрейта : Постоянный
Битрейт : 192 Кбит/сек
Каналы : 2 канала
Частота : 48,0 КГц
Метод сжатия : С потерями
Размер потока : 117 Мбайт (14%)
Выравнивание : Соединение по промежуткам
Продолжительность промежутка : 24 мс. (0,58 видеокадр)
Заголовок : NIKITOS from SHiZA
Библиотека кодирования : LAME3.98.4

Аудио #2
Идентификатор : 2
Формат : MPEG Audio
Версия формата : Version 1
Профиль формата : Layer 3
Идентификатор кодека : 55
Идентификатор кодека/Подсказка : MP3
Продолжительность : 1 ч. 25 м.
Вид битрейта : Постоянный
Битрейт : 192 Кбит/сек
Каналы : 2 канала
Частота : 48,0 КГц
Метод сжатия : С потерями
Размер потока : 117 Мбайт (14%)
Выравнивание : Соединение по промежуткам
Продолжительность промежутка : 24 мс. (0,58 видеокадр)
Заголовок : Jap Original
Библиотека кодирования : LAME3.98.4


Трекер:  [ 24-Фев-2013 21:05 ]

  

Скачать .torrent

Размер .torrent файла 17 KB


Размер: 864 MB
Хэш (hash) релиза: f99552b43267670de16affef520d3d744deb073c
Подписка на обновления:

Еще никто не оставлял запись к записи скачать торрент Наруто Фильм 7: Ураганные Хроники Наруто Фильм 4: Затерянная Башня Naruto Movie 7: Gekijouban Naruto Shippuuden Movie 4: The Lost Tower . Будь первым!

!Обратная связь