Скачать через торрент Наруто Фильм 8: Ураганные Хроники Наруто Фильм 5: Кровавая Тюрьма! Naruto Movie 8: Gekijouban Naruto Shippuuden Naruto the Movie 5: Blood Prison бесплатно Аниме Все серии на русском torrent

Если у вас наблюдаются проблемы со скриншотами, переходом по ссылками, скачиванием торрентов - проблемы в блокировщике рекламы AdBlock. #хорошегоДня!


Статистика раздачи
Размер:  1.07 GB   |    Зарегистрирован:  4 года 5 месяцев   |    .torrent скачан:  84 раза   |   
Раздают:  1  
   
Загрузка...
 
Автор Сообщение

Polarnik

avatar Polarnik


Наруто Фильм 8: Ураганные Хроники Наруто Фильм 5: Кровавая Тюрьма!
Naruto Movie 8: Gekijouban Naruto Shippuuden Naruto the Movie 5: Blood Prison
Год выпуска: 2011
Страна: Япония
Жанр: приключения, комедия, боевые искусства, сёнэн
Продолжительность: 94 мин.
Тип: Movie
Студия:
Режиссёр: Мурата Масахико
Снято по манге: Naruto
Автор оригинала: Кисимото Масаси
Дата выхода: 30.07.2011
Субтитры: Хардсаб НЕТ
Озвучивание: NIKITOS
Работа над звуком: NIKITOS
Работа над таймингом: Gigantic Guyver
Перевод: VanTuz
Редакция: NIKITOS
Релиз-группа:

Описание: Узумаки Наруто обвиняется в покушении на Райкаге и убийстве нескольких Джонинов из Кири- и Ивагакуре. Он попадает в тюрьму Хозукиджо, так же известную как "Кровавая тюрьма". Вскоре он понимает, что хозяин тюрьмы, Муи, крадет Чакру заключенных с помощью специальной техники и что его посадили в тюрьму для того чтобы из него высасывали чакру и пытается сбежать. Позже выясняется. что Муи подставил Наруто, чтобы использовать его чакру для открытия ящика, исполняющего любые желания, и с его помощью воскресить своего погибшего сына Муку
Качество: DVDRip
Формат видео: AVI
Видео: Xvid, 704х396, 23.976 кадр/сек, 1087 Кбит/сек
Аудио №1: RUS - MP3 48000 Hz, 192 kbps
Аудио №2: JAP - MP3 48000 Hz, 192 kbps
Язык Русский (в составе контейнера) ; Озвучка: (Одноголосная), NIKITOS / SHIZA
Общее
Полное имя : D:\[SHiZA Project] Naruto Movies [HWP]\[SHIZA Project] Naruto Shippuuden Movie 5 [RUS JAP] [HWP] [704x396 XviD] [NIKITOS].avi
Формат : AVI
Формат/Информация : Audio Video Interleave
Профиль формата : OpenDML
Размер файла : 1,07 Гбайт
Продолжительность : 1 ч. 42 м.
Общий поток : 1498 Кбит/сек
Программа кодирования : Lavf53.10.0

Видео
Идентификатор : 0
Формат : MPEG-4 Visual
Профиль формата : Simple@L3
Параметр BVOP формата : Нет
Параметр QPel формата : Нет
Параметр GMC формата : Без точки перехода
Параметр матрицы формата : Default (H.263)
Идентификатор кодека : XVID
Идентификатор кодека/Подсказка : XviD
Продолжительность : 1 ч. 42 м.
Битрейт : 1087 Кбит/сек
Ширина : 704 пикселя
Высота : 396 пикселей
Соотношение сторон : 16:9
Частота кадров : 23,976 кадра/сек
Цветовое пространство : YUV
Субдискретизация насыщенности : 4:2:0
Битовая глубина : 8 бит
Тип развёртки : Прогрессивная
Метод сжатия : С потерями
Бит/(Пиксели*Кадры) : 0.163
Размер потока : 797 Мбайт (73%)
Библиотека кодирования : XviD 64

Аудио #1
Идентификатор : 1
Формат : MPEG Audio
Версия формата : Version 1
Профиль формата : Layer 3
Идентификатор кодека : 55
Идентификатор кодека/Подсказка : MP3
Продолжительность : 1 ч. 42 м.
Вид битрейта : Постоянный
Битрейт : 192 Кбит/сек
Каналы : 2 канала
Частота : 48,0 КГц
Метод сжатия : С потерями
Размер потока : 141 Мбайт (13%)
Выравнивание : Соединение по промежуткам
Продолжительность промежутка : 24 мс. (0,58 видеокадр)
Заголовок : NIKITOS from SHIZA
Библиотека кодирования : LAME3.98.4

Аудио #2
Идентификатор : 2
Формат : MPEG Audio
Версия формата : Version 1
Профиль формата : Layer 3
Идентификатор кодека : 55
Идентификатор кодека/Подсказка : MP3
Продолжительность : 1 ч. 42 м.
Вид битрейта : Постоянный
Битрейт : 192 Кбит/сек
Каналы : 2 канала
Частота : 48,0 КГц
Метод сжатия : С потерями
Размер потока : 141 Мбайт (13%)
Выравнивание : Соединение по промежуткам
Продолжительность промежутка : 24 мс. (0,58 видеокадр)
Заголовок : JAP Original
Библиотека кодирования : LAME3.98.4


Трекер:  [ 24-Фев-2013 21:05 ]

  

Скачать .torrent

Размер .torrent файла 11 KB


Размер: 1.07 GB
Хэш (hash) релиза: 56e4a29b8e532165feb4db882fde297f611f5b05
Подписка на обновления:

Еще никто не оставлял запись к записи скачать торрент Наруто Фильм 8: Ураганные Хроники Наруто Фильм 5: Кровавая Тюрьма! Naruto Movie 8: Gekijouban Naruto Shippuuden Naruto the Movie 5: Blood Prison . Будь первым!

!Обратная связь