Скачать через торрент Crysis 3 MP Alpha gameplay Игра для ПК (PC) бесплатно torrent

Если у вас наблюдаются проблемы со скриншотами, переходом по ссылками, скачиванием торрентов - проблемы в блокировщике рекламы AdBlock. #хорошегоДня!


Статистика раздачи
Размер:  1.84 GB   |    Зарегистрирован:  4 года 9 месяцев   |    .torrent скачан:  199 раз   |   
Раздают:  1  
   
Загрузка...
 
Автор Сообщение

L


Crysis 3 MP Alpha gameplay [комментарии MAZAVS]

Год выпуска: 2012
Создатель видео: MAZAVS
Продолжительность: 00:32:00
Субтитры: нет
Язык озвучки : русский
Качество: HD
Формат: AVI
D:\Crysis 3 MP Alpha gameplay+комментарии MAZAVS.avi
General
Complete name : D:\Crysis 3 MP Alpha gameplay+комментарии MAZAVS.avi
Format : AVI
Format/Info : Audio Video Interleave
File size : 1.84 GiB
Duration : 32mn 0s
Overall bit rate : 8 240 Kbps
Video #0
ID : 0
Format : AVC
Format/Info : Advanced Video Codec
Format profile : Main@L5.1
Format settings, CABAC : Yes
Format settings, ReFrames : 2 frames
Codec ID : H264
Duration : 32mn 0s
Bit rate : 7 972 Kbps
Width : 1 920 pixels
Height : 1 080 pixels
Display aspect ratio : 16:9
Frame rate : 30.000 fps
Color space : YUV
Chroma subsampling : 4:2:0
Bit depth : 8 bits
Scan type : Progressive
Bits/(Pixel*Frame) : 0.128
Stream size : 1.78 GiB (97%)
Audio #1
ID : 1
Format : MPEG Audio
Format version : Version 1
Format profile : Layer 3
Codec ID : 55
Codec ID/Hint : MP3
Duration : 32mn 0s
Bit rate mode : Constant
Bit rate : 256 Kbps
Channel(s) : 2 channels
Sampling rate : 44.1 KHz
Compression mode : Lossy
Stream size : 58.6 MiB (3%)
Alignment : Split accross interleaves
Interleave, duration : 33 ms (1.00 video frame)
Interleave, preload duration : 175 ms
Writing library : LAMELAME_MAJOR_VERSI
Описание:
Играем в закрытую альфа версию мулитиплеерного режима Crysis 3.

Трекер:  [ 17-Фев-2013 11:18 ]

  

Скачать .torrent

Размер .torrent файла 19 KB


Размер: 1.84 GB
Хэш (hash) релиза: 9a3081f786ef376b56d785a0befe3b064d70c06d
Подписка на обновления:

Еще никто не оставлял запись к записи скачать торрент Crysis 3 MP Alpha gameplay . Будь первым!

!Обратная связь