Скачать через торрент [iPad] Холостячки Bachelorette бесплатно русская версия torrent активатор

Если у вас наблюдаются проблемы со скриншотами, переходом по ссылками, скачиванием торрентов - проблемы в блокировщике рекламы AdBlock. #хорошегоДня!


Статистика раздачи
Размер:  1.5 GB   |    Зарегистрирован:  4 года 8 месяцев   |    .torrent скачан:  112 раз   |   
Раздают:  1  
   
Загрузка...
 
Автор Сообщение

Galfimbul

avatar Galfimbul


Холостячки / Bachelorette

«Комедия о том, как плохие девочки получают всё»

Год выпуска: 2012
Страна: США
Студия: Gary Sanchez Productions, BCDF Pictures
Жанр: Комедия
Продолжительность: 01:27:03
Рейтинг MPAA: R
Перевод: Профессиональный (дублированный)
Оригинальная аудиодорожка: есть
Cубтитры: английские

Режиссёр: Лесли Хэдланд/ Leslye Headland
Сценарий: Лесли Хэдланд
Продюссер: Брайс Даль Фарра, Клод Даль Фарра, Джессика Элбаум

В ролях: Кирстен Данст, Айла Фишер, Лиззи Каплан, Джеймс Мэрсден, Кайл Борнхеймер, Ребел Уилсон, Адам Скотт, Хэйес МакАртур, Энди Раннеллс, Элла Рэй Пек

Описание:
Три симпатичные и острые на язык незамужние подруги приезжают на свадьбу бывшей одноклассницы-толстушки и… случайно портят впечатляющее своими размерами подвенечное платье невесты. А ведь завтра ей идти к алтарю! За одну ночь холостячкам предстоит проделать головокружительное путешествие по стрип-клубам, туалетным комнатам и мужским спальням во имя спасения свадьбы той, которую они терпеть не могут.

Доп. информация:


Качество исходника: BDRemux - Холостячки / Bachelorette / 2012 / ДБ / Blu-Ray Remux (1080p)
Качество: BDRip
Разрешение: 1024х432
Формат: MP4
Видео: H.264, 2,40:1 , 2200kbit/s; 23.976fps

Аудио 1: Russian/Dub, AAC, 123kbit/s; 2ch; 48KHz
Аудио 2: English/Original, AAC, 127kbit/s; 2ch; 48KHz
Media Type: MovieXID: Apple:vendor_id:2012-589108Content ID: 546244583ScreenWriters: Лесли ХэдландProducers: Брайс Даль Фарра, Клод Даль Фарра, Джессика ЭлбаумDirector: Лесли ХэдландCast: Кирстен Данст, Айла Фишер, Лиззи Каплан, Джеймс Мэрсден, Кайл Борнхеймер, Ребел Уилсон, Адам Скотт, Хэйес МакАртур, Энди Раннеллс, Элла Рэй ПекRating: RLong Description: Три симпатичные и острые на язык незамужние подруги приезжают на свадьбу бывшей одноклассницы-толстушки и… случайно портят впечатляющее своими размерами подвенечное платье невесты. А ведь завтра ей идти к алтарю! За одну ночь холостячкам предстоит проделать головокружительное путешествие по стрип-клубам, туалетным комнатам и мужским спальням во имя спасения свадьбы той, которую они терпеть не могут.Description: Три симпатичные и острые на язык незамужние подруги приезжают на свадьбу бывшей одноклассницы-толстушки и… случайно портят впечатляющее своими размерами подвенечное платье невесты.Release Date: 2012-01-23T07:00:00ZGenre: ComedyArtist: Лесли ХэдландName: Холостячки
ОбщееПолное имя : C:\Handbrake\Холостячки.2012.x264.BDRip.1024x.m4vФормат : MPEG-4Идентификатор кодека : M4VРазмер файла : 1,50 ГбайтПродолжительность : 1 ч. 27 м.Режим общего битрейта : ПеременныйОбщий поток : 2463 Кбит/секНазвание фильма : ХолостячкиИсполнитель : Лесли ХэдландЖанр : ComedyДата записи : 2012-01-23T07:00:00ZДата кодирования : UTC 2013-02-05 08:37:33Дата пометки : UTC 2013-02-05 08:49:46Программа кодирования : MkvToMp4 []www.mkvtomp4.ru] version 0.222Обложка : Yesdesc : Три симпатичные и острые на язык незамужние подруги приезжают на свадьбу бывшей одноклассницы-толстушки и… случайно портят впечатляющее своими размерами подвенечное платье невесты.ldes : Три симпатичные и острые на язык незамужние подруги приезжают на свадьбу бывшей одноклассницы-толстушки и… случайно портят впечатляющее своими размерами подвенечное платье невесты. А ведь завтра ей идти к алтарю! За одну ночь холостячкам предстоит проделать головокружительное путешествие по стрип-клубам, туалетным комнатам и мужским спальням во имя спасения свадьбы той, которую они терпеть не могут.hdvd : 0stik : 9akID : -1sfID : 0cnID : 546244583xid : Apple:vendor_id:2012-589108iTunEXTC : mpaa|R|400|iTunMOVI : <?xml version="1.0" encoding="UTF-8"?> / <!DOCTYPE plist PUBLIC "-//Apple//DTD PLIST 1.0//EN" "http://www.apple.com/DTDs/PropertyList-1.0.dtd"> / <plist version="1.0"> / <dict> / <key>cast</key> / <array> / <dict> / <key>name</key> / <string>Кирстен Данст</string> / </dict> / <dict> / <key>name</key> / <string>Айла Фишер</string> / </dict> / <dict> / <key>name</key> / <string>Лиззи Каплан</string> / </dict> / <dict> / <key>name</key> / <string>Джеймс Мэрсден</string> / </dict> / <dict> / <key>name</key> / <string>Кайл Борнхеймер</string> / </dict> / <dict> / <key>name</key> / <string>Ребел Уилсон</string> / </dict> / <dict> / <key>name</key> / <string>Адам Скотт</string> / </dict> / <dict> / <key>name</key> / <string>Хэйес МакАртур</string> / </dict> / <dict> / <key>name</key> / <string>Энди Раннеллс</string> / </dict> / <dict> / <key>name</key> / <string>Элла Рэй Пек</string> / </dict> / </array> / <key>directors</key> / <array> / <dict> / <key>name</key> / <string>Лесли Хэдланд</string> / </dict> / </array> / <key>producers</key> / <array> / <dict> / <key>name</key> / <string>Брайс Даль Фарра</string> / </dict> / <dict> / <key>name</key> / <string>Клод Даль Фарра</string> / </dict> / <dict> / <key>name</key> / <string>Джессика Элбаум</string> / </dict> / </array> / <key>screenwriters</key> / <array> / <dict> / <key>name</key> / <string>Лесли Хэдланд</string> / </dict> / </array> / </dict> / </plist>

ВидеоИдентификатор : 1Формат : AVCФормат/Информация : Advanced Video CodecПрофиль формата : <a href="mailto:High@L3.1Параметр" class="postLink">High@L3.1Параметр</a> CABAC формата : ДаПараметр ReFrames формата : 9 кадровИдентификатор кодека : avc1Идентификатор кодека/Информация : Advanced Video CodingПродолжительность : 1 ч. 27 м.Битрейт : 2200 Кбит/секМаксимальный битрейт : 10,2 Мбит/секШирина : 1024 пикселяВысота : 432 пикселяСоотношение сторон : 2,40:1Режим частоты кадров : ПеременныйЧастота кадров : 23,976 кадра/секМинимальная частота кадров : 23,810 кадра/секМаксимальная частота кадров : 24,319 кадра/секЦветовое пространство : YUVСубдискретизация насыщенности : 4:2:0Битовая глубина : 8 битТип развёртки : ПрогрессивнаяБит/(Пиксели*Кадры) : 0.207Размер потока : 1,34 Гбайт (89%)Библиотека кодирования : x264 core 120Настройки программы : cabac=1 / ref=9 / deblock=1:0:0 / analyse=0x3:0x113 / me=umh / subme=9 / psy=1 / psy_rd=1.00:0.00 / mixed_ref=1 / me_range=32 / chroma_me=1 / trellis=1 / 8x8dct=1 / cqm=0 / deadzone=21,11 / fast_pskip=1 / chroma_qp_offset=-2 / threads=12 / sliced_threads=0 / nr=0 / decimate=1 / interlaced=0 / bluray_compat=0 / constrained_intra=0 / bframes=6 / b_pyramid=2 / b_adapt=2 / b_bias=0 / direct=1 / weightb=1 / open_gop=0 / weightp=2 / keyint=240 / keyint_min=24 / scenecut=40 / intra_refresh=0 / rc_lookahead=40 / rc=2pass / mbtree=1 / bitrate=2200 / ratetol=1.0 / qcomp=0.60 / qpmin=3 / qpmax=69 / qpstep=4 / cplxblur=20.0 / qblur=0.5 / ip_ratio=1.40 / aq=1:1.00Язык : EnglishДата кодирования : UTC 2013-02-05 08:37:33Дата пометки : UTC 2013-02-05 08:38:31Основные цвета : BT.709Характеристики трансфера : BT.709Коэффициенты матрицы : BT.709

Аудио #1Идентификатор : 2Формат : AACФормат/Информация : Advanced Audio CodecПрофиль формата : LCИдентификатор кодека : 40Продолжительность : 1 ч. 27 м.Вид битрейта : ПеременныйБитрейт : 123 Кбит/секМаксимальный битрейт : 183 Кбит/секКаналы : 2 каналаРасположение каналов : Front: L RЧастота : 48,0 КГцМетод сжатия : С потерямиРазмер потока : 76,9 Мбайт (5%)Язык : RussianДата кодирования : UTC 2013-02-05 08:38:00Дата пометки : UTC 2013-02-05 08:38:31

Аудио #2Идентификатор : 3Формат : AACФормат/Информация : Advanced Audio CodecПрофиль формата : LCИдентификатор кодека : 40Продолжительность : 1 ч. 27 м.Вид битрейта : ПеременныйБитрейт : 127 Кбит/секМаксимальный битрейт : 182 Кбит/секКаналы : 2 каналаРасположение каналов : Front: L RЧастота : 48,0 КГцМетод сжатия : С потерямиРазмер потока : 79,2 Мбайт (5%)Язык : EnglishДата кодирования : UTC 2013-02-05 08:38:23Дата пометки : UTC 2013-02-05 08:38:31

Текст #1Идентификатор : 4Формат : Timed textРежим смешивания : sbtlИдентификатор кодека : tx3gПродолжительность : 1 ч. 21 м.Вид битрейта : ПеременныйБитрейт : 109 бит/секРазмер потока : 64,8 Кбайт (0%)Язык : EnglishДата кодирования : UTC 2013-02-05 08:38:31Дата пометки : UTC 2013-02-05 08:38:31

Текст #2Идентификатор : 6Формат : Apple textИдентификатор кодека : textПродолжительность : 1 ч. 27 м.Вид битрейта : ПостоянныйБитрейт : 0 бит/секРазмер потока : 184 байт (0%)Дата кодирования : UTC 2013-02-05 08:49:46Дата пометки : UTC 2013-02-05 08:49:46
x264 [info]: frame I:1172 Avg QP:12.25 size: 68423 PSNR Mean Y:50.92 U:52.37 V:53.19 Avg:51.44 Global:50.99x264 [info]: frame P:29441 Avg QP:15.06 size: 24410 PSNR Mean Y:49.09 U:50.42 V:51.26 Avg:49.57 Global:48.65x264 [info]: frame B:94623 Avg QP:17.76 size: 6728 PSNR Mean Y:47.29 U:49.22 V:50.43 Avg:47.91 Global:47.60x264 [info]: consecutive B-frames: 2.1% 2.3% 6.0% 49.2% 12.0% 20.1% 8.4%x264 [info]: mb I I16..4: 11.4% 65.8% 22.8%x264 [info]: mb P I16..4: 2.0% 10.1% 3.2% P16..4: 32.4% 27.9% 16.4% 0.0% 0.0% skip: 8.1%x264 [info]: mb B I16..4: 0.2% 1.0% 0.4% B16..8: 39.5% 13.5% 3.7% direct: 4.9% skip:36.9% L0:44.3% L1:43.5% BI:12.2%x264 [info]: 8x8 transform intra:65.6% inter:71.2%x264 [info]: coded y,uvDC,uvAC intra: 83.5% 90.7% 75.5% inter: 25.9% 30.9% 8.7%x264 [info]: i16 v,h,dc,p: 36% 12% 6% 46%x264 [info]: i8 v,h,dc,ddl,ddr,vr,hd,vl,hu: 14% 9% 5% 9% 12% 15% 11% 13% 11%x264 [info]: i4 v,h,dc,ddl,ddr,vr,hd,vl,hu: 11% 7% 3% 9% 16% 17% 13% 12% 12%x264 [info]: i8c dc,h,v,p: 43% 19% 22% 17%x264 [info]: Weighted P-Frames: Y:1.7% UV:1.2%x264 [info]: ref P L0: 48.3% 9.5% 16.2% 7.4% 5.6% 4.5% 3.6% 2.4% 2.3% 0.2% 0.0%x264 [info]: ref B L0: 75.3% 10.7% 5.7% 2.8% 2.2% 1.8% 1.0% 0.4%x264 [info]: ref B L1: 93.0% 7.0%x264 [info]: SSIM Mean Y:0.9899532 (19.980db)x264 [info]: PSNR Mean Y:47.750 U:49.530 V:50.650 Avg:48.334 Global:47.850 kb/s:2198.49


Трекер:  [ 05-Фев-2013 17:47 ]

  

Скачать .torrent

Размер .torrent файла 15 KB


Размер: 1.5 GB
Хэш (hash) релиза: eecb8cab3c39c4acf9a32b55eacf3dcfc4a8ccd6

Еще никто не оставлял запись к записи скачать торрент [iPad] Холостячки Bachelorette . Будь первым!

!Обратная связь