Скачать через торрент музыку The Rolling Stones 1972-Exile On Main St. бесплатно без регистрации torrent

Если у вас наблюдаются проблемы со скриншотами, переходом по ссылками, скачиванием торрентов - проблемы в блокировщике рекламы AdBlock. #хорошегоДня!


Статистика раздачи
Размер:  476 MB   |    Зарегистрирован:  4 года 6 месяцев   |    .torrent скачан:  89 раз   |   
Раздают:  1  
   
Загрузка...
 
Автор Сообщение

Galfimbul

avatar Galfimbul


1972-Exile On Main St.
[1994 Holland Remaster, Virgin CDV 2731]

Жанр: Rock / Classic Rock
Страна исполнителя: United Kingdom
Страна-производитель диска: Holland
Год выхода альбома / издания диска: 1972 / 1994
Издатель (лейбл): Virgin
Номер по каталогу: Virgin CDV 2731
SID Mastering Code: 3-1-19-NL
SID Mould Code: 1522
Аудио кодек: FLAC (*.flac)
Тип рипа: image+.cue
Битрейт аудио: lossless
Продолжительность: 1:07:16
Источник: личная коллекция
Наличие сканов в содержимом раздачи:
01. Rocks Off (4:33)
02. Rip This Joint (2:23)
03. Shake Your Hips (3:00)
04. Casino Boogie (3:34)
05. Tumbling Dice (3:48)
06. Sweet Virginia (4:26)
07. Torn And Frayed (4:18)
08. Sweet Black Angel (2:58)
09. Loving Cup (4:26)
10. Happy (3:05)
11. Turd On The Run (2:38)
12. Ventilator Blues (3:24)
13. I Just Want To See His Face (2:54)
14. Let It Loose (5:19)
15. All Down The Line (3:50)
16. Stop Breaking Down (4:34)
17. Shine A Light (4:17)
18. Soul Survivor (3:49)
Exact Audio Copy V1.0 beta 3 from 29. August 2011

EAC extraction logfile from 4. February 2013, 15:00

The Rolling Stones / Exile On Main St.

Used drive : TSSTcorpCDDVDW SH-S203B Adapter: 2 ID: 0

Read mode : SecureUtilize accurate stream : YesDefeat audio cache : YesMake use of C2 pointers : No

Read offset correction : 6Overread into Lead-In and Lead-Out : NoFill up missing offset samples with silence : YesDelete leading and trailing silent blocks : NoNull samples used in CRC calculations : YesUsed interface : Native Win32 interface for Win NT & 2000

Used output format : Internal WAV RoutinesSample format : 44.100 Hz; 16 Bit; Stereo

TOC of the extracted CD

Track | Start | Length | Start sector | End sector --------------------------------------------------------- 1 | 0:00.00 | 4:32.45 | 0 | 20444 2 | 4:32.45 | 2:22.72 | 20445 | 31166 3 | 6:55.42 | 3:00.03 | 31167 | 44669 4 | 9:55.45 | 3:34.22 | 44670 | 60741 5 | 13:29.67 | 3:47.38 | 60742 | 77804 6 | 17:17.30 | 4:26.30 | 77805 | 97784 7 | 21:43.60 | 4:18.12 | 97785 | 117146 8 | 26:01.72 | 2:58.03 | 117147 | 130499 9 | 29:00.00 | 4:25.62 | 130500 | 150436 10 | 33:25.62 | 3:05.00 | 150437 | 164311 11 | 36:30.62 | 2:38.20 | 164312 | 176181 12 | 39:09.07 | 3:24.13 | 176182 | 191494 13 | 42:33.20 | 2:53.62 | 191495 | 204531 14 | 45:27.07 | 5:18.55 | 204532 | 228436 15 | 50:45.62 | 3:50.08 | 228437 | 245694 16 | 54:35.70 | 4:34.22 | 245695 | 266266 17 | 59:10.17 | 4:16.70 | 266267 | 285536 18 | 63:27.12 | 3:49.25 | 285537 | 302736

Range status and errors

Selected range

Filename C:\Incoming\UncleSandy\The Rolling Stones - Exile On Main St..wav

Peak level 97.7 % Extraction speed 8.1 X Range quality 99.9 % Test CRC E90382CA Copy CRC E90382CA Copy OK

No errors occurred

AccurateRip summary

Track 1 accurately ripped (confidence 23) [CBD9E7AA] (AR v2)Track 2 accurately ripped (confidence 22) [30240362] (AR v2)Track 3 accurately ripped (confidence 22) [0D8D0735] (AR v2)Track 4 accurately ripped (confidence 22) [CA0F1786] (AR v2)Track 5 accurately ripped (confidence 22) [8F47DEF8] (AR v2)Track 6 accurately ripped (confidence 22) [90A5AEE5] (AR v2)Track 7 accurately ripped (confidence 22) [108FBD20] (AR v2)Track 8 accurately ripped (confidence 21) [F2F2032A] (AR v2)Track 9 accurately ripped (confidence 21) [7BB57A5A] (AR v2)Track 10 accurately ripped (confidence 22) [7950EFE7] (AR v2)Track 11 accurately ripped (confidence 22) [B5227878] (AR v2)Track 12 accurately ripped (confidence 21) [4B50E427] (AR v2)Track 13 accurately ripped (confidence 22) [6150CB06] (AR v2)Track 14 accurately ripped (confidence 22) [2673F01A] (AR v2)Track 15 accurately ripped (confidence 22) [F9E4055D] (AR v2)Track 16 accurately ripped (confidence 22) [0B41B57E] (AR v2)Track 17 accurately ripped (confidence 22) [5B03A387] (AR v2)Track 18 accurately ripped (confidence 21) [A38D8016] (AR v2)

All tracks accurately ripped

End of status report

==== Log checksum 6DE1BE2B59411A0F25E1D260667BA6079B3C764CF112D5AD8A1FC49B3791908B ====
REM GENRE RockREM DATE 1972REM DISCID F80FC412REM COMMENT "ExactAudioCopy v1.0b3"PERFORMER "The Rolling Stones"TITLE "Exile On Main St."FILE "The Rolling Stones - Exile On Main St..flac" WAVE TRACK 01 AUDIO TITLE "Rocks Off" PERFORMER "The Rolling Stones" INDEX 01 00:00:00 TRACK 02 AUDIO TITLE "Rip This Joint" PERFORMER "The Rolling Stones" INDEX 00 04:31:15 INDEX 01 04:32:45 TRACK 03 AUDIO TITLE "Shake Your Hips" PERFORMER "The Rolling Stones" INDEX 01 06:55:42 TRACK 04 AUDIO TITLE "Casino Boogie" PERFORMER "The Rolling Stones" INDEX 01 09:55:45 TRACK 05 AUDIO TITLE "Tumbling Dice" PERFORMER "The Rolling Stones" INDEX 00 13:28:30 INDEX 01 13:29:67 TRACK 06 AUDIO TITLE "Sweet Virginia" PERFORMER "The Rolling Stones" INDEX 00 17:15:35 INDEX 01 17:17:30 TRACK 07 AUDIO TITLE "Torn And Frayed" PERFORMER "The Rolling Stones" INDEX 01 21:43:60 TRACK 08 AUDIO TITLE "Sweet Black Angel" PERFORMER "The Rolling Stones" INDEX 00 26:00:52 INDEX 01 26:01:72 TRACK 09 AUDIO TITLE "Loving Cup" PERFORMER "The Rolling Stones" INDEX 00 28:56:35 INDEX 01 29:00:00 TRACK 10 AUDIO TITLE "Happy" PERFORMER "The Rolling Stones" INDEX 00 33:23:50 INDEX 01 33:25:62 TRACK 11 AUDIO TITLE "Turd On The Run" PERFORMER "The Rolling Stones" INDEX 01 36:30:62 TRACK 12 AUDIO TITLE "Ventilator Blues" PERFORMER "The Rolling Stones" INDEX 00 39:07:45 INDEX 01 39:09:07 TRACK 13 AUDIO TITLE "I Just Want To See His Face" PERFORMER "The Rolling Stones" INDEX 01 42:33:20 TRACK 14 AUDIO TITLE "Let It Loose" PERFORMER "The Rolling Stones" INDEX 00 45:25:52 INDEX 01 45:27:07 TRACK 15 AUDIO TITLE "All Down The Line" PERFORMER "The Rolling Stones" INDEX 00 50:43:55 INDEX 01 50:45:62 TRACK 16 AUDIO TITLE "Stop Breaking Down" PERFORMER "The Rolling Stones" INDEX 00 54:34:65 INDEX 01 54:35:70 TRACK 17 AUDIO TITLE "Shine A Light" PERFORMER "The Rolling Stones" INDEX 01 59:10:17 TRACK 18 AUDIO TITLE "Soul Survivor" PERFORMER "The Rolling Stones" INDEX 00 63:24:32 INDEX 01 63:27:12
[CUETools log; Date: 04.02.2013 16:28:33; Version: 2.1.4][CTDB TOCID: 6fBT1PpxabLwKnlFYMgO7ZfDies-] found.Track | CTDB Status 1 | (36/37) Accurately ripped 2 | (36/37) Accurately ripped 3 | (36/37) Accurately ripped 4 | (36/37) Accurately ripped 5 | (36/37) Accurately ripped 6 | (36/37) Accurately ripped 7 | (35/37) Accurately ripped 8 | (36/37) Accurately ripped 9 | (36/37) Accurately ripped 10 | (36/37) Accurately ripped 11 | (35/37) Accurately ripped 12 | (36/37) Accurately ripped 13 | (36/37) Accurately ripped 14 | (36/37) Accurately ripped 15 | (36/37) Accurately ripped 16 | (36/37) Accurately ripped 17 | (35/37) Accurately ripped 18 | (35/37) Accurately ripped[AccurateRip ID: 002aa974-023b34a7-f80fc412] found.Track [ CRC | V2 ] Status 01 [e7c40709|cbd9e7aa] (200+023/339) Accurately ripped 02 [46f6a671|30240362] (200+022/340) Accurately ripped 03 [97cdb5be|0d8d0735] (200+022/339) Accurately ripped 04 [e42f9cde|ca0f1786] (200+022/336) Accurately ripped 05 [3234d0c6|8f47def8] (200+022/337) Accurately ripped 06 [f46c24f6|90a5aee5] (200+022/334) Accurately ripped 07 [c6d9d66b|108fbd20] (200+022/335) Accurately ripped 08 [fd1df3f9|f2f2032a] (200+021/338) Accurately ripped 09 [c07c95da|7bb57a5a] (200+021/335) Accurately ripped 10 [c37a3d09|7950efe7] (200+022/339) Accurately ripped 11 [0a305400|b5227878] (200+022/337) Accurately ripped 12 [e4a2dca8|4b50e427] (200+021/336) Accurately ripped 13 [dabfc5e7|6150cb06] (200+022/338) Accurately ripped 14 [22a2dcda|2673f01a] (200+022/334) Accurately ripped 15 [c0b36371|f9e4055d] (200+022/332) Accurately ripped 16 [bc50b7fa|0b41b57e] (200+022/334) Accurately ripped 17 [ad3c4cae|5b03a387] (200+022/334) Accurately ripped 18 [0bf727ad|a38d8016] (200+021/326) Accurately rippedOffsetted by -1375: 01 [a577c323] (009/339) Accurately ripped 02 [b6f8a161] (009/340) Accurately ripped 03 [dde1200f] (009/339) Accurately ripped 04 [109735d4] (009/336) Accurately ripped 05 [6ac3d6f8] (009/337) Accurately ripped 06 [10e84382] (009/334) Accurately ripped 07 [615b87c7] (009/335) Accurately ripped 08 [f2ec9c4a] (009/338) Accurately ripped 09 [5fb00728] (009/335) Accurately ripped 10 [71c50341] (009/339) Accurately ripped 11 [b044d7b3] (009/337) Accurately ripped 12 [9608cac9] (009/336) Accurately ripped 13 [433fcf8e] (009/338) Accurately ripped 14 [b96d97ca] (008/334) Accurately ripped 15 [109d11b8] (009/332) Accurately ripped 16 [dda9670e] (009/334) Accurately ripped 17 [a180351b] (009/334) Accurately ripped 18 [9149b169] (009/326) Accurately rippedOffsetted by -269: 01 [bda04be2] (006/339) Accurately ripped 02 [5b1f01a6] (006/340) Accurately ripped 03 [bc1d8401] (006/339) Accurately ripped 04 [89555b76] (005/336) Accurately ripped 05 [6cd62954] (005/337) Accurately ripped 06 [82aa487c] (005/334) Accurately ripped 07 [6aa3465e] (005/335) Accurately ripped 08 [e738b1ab] (005/338) Accurately ripped 09 [df546378] (005/335) Accurately ripped 10 [d4d1b1a8] (005/339) Accurately ripped 11 [fbb4a084] (005/337) Accurately ripped 12 [85508665] (005/336) Accurately ripped 13 [8268458b] (005/338) Accurately ripped 14 [e5384f76] (005/334) Accurately ripped 15 [0df5ea51] (005/332) Accurately ripped 16 [bb14a8b2] (005/334) Accurately ripped 17 [28825e00] (005/334) Accurately ripped 18 [ebe93a96] (004/326) Accurately rippedOffsetted by -54: 01 [9c67f663] (074/339) Accurately ripped 02 [598c0eac] (075/340) Accurately ripped 03 [81bf70fa] (074/339) Accurately ripped 04 [ad67449f] (072/336) Accurately ripped 05 [9be6e584] (073/337) Accurately ripped 06 [175a5e44] (070/334) Accurately ripped 07 [278fe9e8] (071/335) Accurately ripped 08 [238bc42b] (073/338) Accurately ripped 09 [b5c98570] (073/335) Accurately ripped 10 [c51fa8c3] (075/339) Accurately ripped 11 [230a41ed] (073/337) Accurately ripped 12 [5a18e4ff] (074/336) Accurately ripped 13 [fe7ef09d] (072/338) Accurately ripped 14 [105a7ef9] (073/334) Accurately ripped 15 [d0a8b9a3] (073/332) Accurately ripped 16 [0bea98a8] (073/334) Accurately ripped 17 [362a018e] (071/334) Accurately ripped 18 [c1ad0bf2] (065/326) Accurately rippedOffsetted by 36: 01 [b5fabce6] (007/339) Accurately ripped 02 [7c941237] (008/340) Accurately ripped 03 [65bb7ed2] (008/339) Accurately ripped 04 [c8eb0607] (008/336) Accurately ripped 05 [3aed369f] (008/337) Accurately ripped 06 [34dfbae1] (008/334) Accurately ripped 07 [c13f5753] (008/335) Accurately ripped 08 [7e66e823] (008/338) Accurately ripped 09 [99929185] (007/335) Accurately ripped 10 [b621df0f] (008/339) Accurately ripped 11 [fd96db3e] (008/337) Accurately ripped 12 [e9369971] (007/336) Accurately ripped 13 [1956ead3] (008/338) Accurately ripped 14 [4f25585f] (008/334) Accurately ripped 15 [15fec3e0] (007/332) Accurately ripped 16 [ba7dc483] (008/334) Accurately ripped 17 [940f05fd] (008/334) Accurately ripped 18 [516090e2] (008/326) Accurately rippedOffsetted by -280: 01 [75342ef4] (000/339) No match (V2 was not tested) 02 [9d1a9bc2] (007/340) Accurately ripped 03 [cebb47bb] (007/339) Accurately ripped 04 [111999e2] (007/336) Accurately ripped 05 [07c78740] (007/337) Accurately ripped 06 [74fb53a6] (007/334) Accurately ripped 07 [265763ac] (007/335) Accurately ripped 08 [db6e9a1d] (007/338) Accurately ripped 09 [b6c97068] (007/335) Accurately ripped 10 [c06e95d7] (007/339) Accurately ripped 11 [ff43ad38] (007/337) Accurately ripped 12 [35dd3168] (007/336) Accurately ripped 13 [b71928c7] (007/338) Accurately ripped 14 [4fd5e55d] (007/334) Accurately ripped 15 [8a5a05c0] (007/332) Accurately ripped 16 [1af75e9c] (007/334) Accurately ripped 17 [de993e34] (007/334) Accurately ripped 18 [fb0fd3cf] (007/326) Accurately rippedOffsetted by -48: 01 [7c1179f3] (000/339) No match 02 [59d32154] (000/340) No match 03 [47e7dc8a] (000/339) No match 04 [c80fa3a6] (000/336) No match 05 [415be3a6] (000/337) No match 06 [4b7311ef] (000/334) No match (V2 was not tested) 07 [8844c850] (000/335) No match 08 [c3991dcf] (002/338) Accurately ripped 09 [97759cbe] (000/335) No match (V2 was not tested) 10 [4692c56b] (000/339) No match 11 [214a9961] (000/337) No match 12 [addb4cc8] (000/336) No match 13 [a57087e2] (000/338) No match 14 [5411abf9] (000/334) No match 15 [073580df] (000/332) No match 16 [b0f6f043] (000/334) No match 17 [866c7135] (000/334) No match 18 [0f6fe3ba] (000/326) No match

Track Peak [ CRC32 ] [W/O NULL] [ LOG ] -- 97,7 [E90382CA] [5609BCD9] CRC32 01 97,7 [2FD0757E] [741D4F1C] 02 97,7 [F7598B6A] [BFC08710] 03 84,7 [9C1F7251] [BEE3A20B] 04 97,7 [0295510A] [F46EEBF1] 05 97,7 [BEECE3A1] [42C4CF85] 06 97,7 [6CFB832C] [FF590FF1] 07 97,7 [A0027EF6] [D0CA1B90] 08 97,7 [EB4EEE3B] [52697F16] 09 97,7 [C5B0A216] [3C523ADB] 10 97,7 [105DB914] [DC1DA69E] 11 85,9 [2ADD9B1E] [10FF7099] 12 97,7 [A992C213] [F5B2C7B1] 13 86,9 [5A290692] [296BB7A9] 14 97,7 [7012434B] [2527673E] 15 97,7 [33809E1E] [F7FF16D0] 16 97,7 [211BBEE1] [1D87DAC3] 17 97,7 [F1D8902E] [678E29BE] 18 97,7 [0C5C7D1F] [3A0EBC0A]
foobar2000 1.1.1 / Dynamic Range Meter 1.1.1log date: 2013-02-04 16:29:37

--------------------------------------------------------------------------------Analyzed: The Rolling Stones / Exile On Main St.--------------------------------------------------------------------------------

DR Peak RMS Duration Track--------------------------------------------------------------------------------DR10 -0.20 dB -11.91 dB 4:33 01-Rocks OffDR10 -0.20 dB -11.02 dB 2:23 02-Rip This JointDR12 -1.43 dB -15.67 dB 3:00 03-Shake Your HipsDR12 -0.20 dB -13.47 dB 3:34 04-Casino BoogieDR10 -0.20 dB -12.57 dB 3:48 05-Tumbling DiceDR12 -0.20 dB -15.23 dB 4:26 06-Sweet VirginiaDR11 -0.20 dB -12.44 dB 4:18 07-Torn And FrayedDR12 -0.20 dB -14.88 dB 2:58 08-Sweet Black AngelDR9 -0.20 dB -12.00 dB 4:26 09-Loving CupDR11 -0.20 dB -12.44 dB 3:05 10-HappyDR9 -1.31 dB -12.39 dB 2:38 11-Turd On The RunDR11 -0.20 dB -12.65 dB 3:24 12-Ventilator BluesDR13 -1.21 dB -16.34 dB 2:54 13-I Just Want To See His FaceDR10 -0.20 dB -13.66 dB 5:19 14-Let It LooseDR10 -0.20 dB -11.37 dB 3:50 15-All Down The LineDR10 -0.20 dB -11.77 dB 4:34 16-Stop Breaking DownDR11 -0.20 dB -14.44 dB 4:17 17-Shine A LightDR11 -0.20 dB -12.30 dB 3:49 18-Soul Survivor--------------------------------------------------------------------------------

Number of tracks: 18Official DR value: DR11

Samplerate: 44100 HzChannels: 2Bits per sample: 16Bitrate: 857 kbpsCodec: FLAC
Рип выполнен с личного диска!


Трекер:  [ 05-Фев-2013 11:05 ]

  

Скачать .torrent

Размер .torrent файла 20 KB


Размер: 476 MB
Хэш (hash) релиза: a5973c55c235f3b098448bcf6deb8b9a0bd37f80

Торренты, похожие на The Rolling Stones 1972-Exile On Main St. скачать торрент

Форум Название Автор Размер S L Добавлен
Rосk | Mеtаl | Аltеrnаtivе, Рunk, Indереndеnt (losslеss) ·· (Rock) The Rolling Stones - Exile On Main St. (1972) Remastered Edition With Bonus CD - 2010, APE (image+.cue), lossless Galfimbul 718779950685 MB 0 0 1297875879

20:04

16-Фев-11

Еще никто не оставлял запись к записи скачать торрент The Rolling Stones 1972-Exile On Main St. . Будь первым!

!Обратная связь