Скачать через торрент музыку Uriah Heep - The Spitfire Years бесплатно без регистрации torrent

Если у вас наблюдаются проблемы со скриншотами, переходом по ссылками, скачиванием торрентов - проблемы в блокировщике рекламы AdBlock. #хорошегоДня!


Статистика раздачи
Размер:  659 MB   |    Зарегистрирован:  4 года 9 месяцев   |    .torrent скачан:  109 раз   |   
Раздают:  1  
   
Загрузка...
 
Автор Сообщение

Galfimbul

avatar Galfimbul


Uriah Heep / The Spitfire Years (The Definitive Spitfire Collection)

Жанр: Classic Rock
Страна-производитель диска: Russia
Год издания: 2011
Издатель (лейбл): Союз Мьюзик/EMI
Номер по каталогу: 4601250371757
Страна: UK
Аудиокодек: FLAC (*.flac)
Тип рипа: image+.cue
Битрейт аудио: lossless
Продолжительность: 01:18:18
Источник (релизер): Собственный рип
Наличие сканов в содержимом раздачи: да
Треклист:

01. Between Two Worlds
02. I Hear Voices
03. Dream On
04. Universal Wheels
05. Spirit Of Freedom
06. Question
07. Change
08. Across The Miles
09. Sweet Sugar
10. Time Of Revelation
11. Words In A Distance
12. Gypsy
13. Stealin'
14. Devil's Daughter
15. Wizard
16. Easy Livin'
Exact Audio Copy V1.0 beta 3 from 29. August 2011

Отчёт EAC об извлечении, выполненном 4. февраля 2013, 19:00

Uriah Heep / The definitive spitfire collection

Дисковод: Optiarc DVD RW AD-7200A Adapter: 4 ID: 0

Режим чтения : ДостоверностьИспользование точного потока : ДаОтключение кэша аудио : ДаИспользование указателей C2 : Нет

Коррекция смещения при чтении : 48Способность читать области Lead-in и Lead-out : НетЗаполнение пропущенных сэмплов тишиной : ДаУдаление блоков с тишиной в начале и конце : НетПри вычислениях CRC использовались нулевые сэмплы : ДаИнтерфейс : Встроенный Win32-интерфейс для Win NT/2000

Выходной формат : Пользовательский кодировщикВыбранный битрейт : 128 kBit/sКачество : ВысокийДобавление ID3-тега : НетУтилита сжатия : C:\Program Files (x86)\Exact Audio Copy\FLAC\FLAC.EXEДополнительные параметры : -V -8 -T "Date=%year%" -T "Genre=%genre%" %source%

TOC извлечённого CD

Трек | Старт | Длительность | Начальный сектор | Конечный сектор --------------------------------------------------------------------- 1 | 0:00.00 | 6:22.03 | 0 | 28652 2 | 6:22.03 | 3:58.07 | 28653 | 46509 3 | 10:20.10 | 4:28.47 | 46510 | 66656 4 | 14:48.57 | 5:41.10 | 66657 | 92241 5 | 20:29.67 | 4:14.63 | 92242 | 111354 6 | 24:44.55 | 5:28.74 | 111355 | 136028 7 | 30:13.54 | 6:04.57 | 136029 | 163385 8 | 36:18.36 | 5:08.66 | 163386 | 186551 9 | 41:27.27 | 4:44.21 | 186552 | 207872 10 | 46:11.48 | 4:02.54 | 207873 | 226076 11 | 50:14.27 | 4:46.10 | 226077 | 247536 12 | 55:00.37 | 6:39.71 | 247537 | 277532 13 | 61:40.33 | 5:34.22 | 277533 | 302604 14 | 67:14.55 | 4:18.28 | 302605 | 321982 15 | 71:33.08 | 3:47.15 | 321983 | 339022 16 | 75:20.23 | 2:58.12 | 339023 | 352384

Характеристики диапазона извлечения и сообщения об ошибках

Выбранный диапазон

Имя файла E:\Temp\Uriah Heep - The Spitfire Years\Uriah Heep - The Definitive Spitfire Collection.wav

Пиковый уровень 100.0 % Скорость извлечения 4.5 X Качество диапазона 99.9 % CRC теста 83B69E99 CRC копии 83B69E99 Копирование... OK

Ошибок не произошло

AccurateRip: сводка

Трек 1 отсутствует в базе данныхТрек 2 отсутствует в базе данныхТрек 3 отсутствует в базе данныхТрек 4 отсутствует в базе данныхТрек 5 отсутствует в базе данныхТрек 6 отсутствует в базе данныхТрек 7 отсутствует в базе данныхТрек 8 отсутствует в базе данныхТрек 9 отсутствует в базе данныхТрек 10 отсутствует в базе данныхТрек 11 отсутствует в базе данныхТрек 12 отсутствует в базе данныхТрек 13 отсутствует в базе данныхТрек 14 отсутствует в базе данныхТрек 15 отсутствует в базе данныхТрек 16 отсутствует в базе данных

Ни одного трека нет в базе AccurateRip

Конец отчёта

==== Контрольная сумма отчёта B69EC56B240BC1AE077928117E66580C408F5E8205A3D3F9003CED4F53510134 ====
AUDIOCHECKER v2.0 beta (build 457) - by Dester - <a href="mailto:opdester@freemail.hu" class="postLink">opdester@freemail.hu</a>~~~~~~~~~~~~~~~~~~~~~~~~~~~~~~~~~~-=== НЕ РЕДАКТИРУЙТЕ ЭТОТ ФАЙЛ! ===-

Путь: ...\Uriah Heep - The Spitfire Years

1 -=- Uriah Heep - The Definitive Spitfire Collection.flac -=- CDDA (100%)

20944420
Доп. информация:
Напоминаем Вам, что вся музыка может использоваться ТОЛЬКО для ознакомления. После прослушивания Вам НЕОБХОДИМО стереть скачанное и тем более не заниматься его распространением среди знакомых

Трекер:  [ 05-Фев-2013 11:31 ]

  

Скачать .torrent

Размер .torrent файла 14 KB


Размер: 659 MB
Хэш (hash) релиза: c1b27ca422f411682deee42cfb48979ed02bffa3

Еще никто не оставлял запись к записи скачать торрент Uriah Heep - The Spitfire Years . Будь первым!

!Обратная связь