Скачать через торрент музыку Bill Bruford - Feels Good To Me - 1977, FLAC бесплатно без регистрации torrent

Если у вас наблюдаются проблемы со скриншотами, переходом по ссылками, скачиванием торрентов - проблемы в блокировщике рекламы AdBlock. #хорошегоДня!


Статистика раздачи
Размер:  295 MB   |    Зарегистрирован:  4 года 6 месяцев   |    .torrent скачан:  144 раза   |   
Раздают:  1  
   
Загрузка...
 
Автор Сообщение

Galfimbul

avatar Galfimbul


Bill Bruford / Feels Good To Me

Жанр: Progressive-Rock,Jazz-Rock
Страна-производитель диска: Japan
Год издания: 1977
Издатель (лейбл): Arcangelo
Номер по каталогу: ARC-7090
Страна: UK
Аудиокодек: FLAC (*.flac)
Тип рипа: image+.cue
Битрейт аудио: lossless
Продолжительность: 52:26
Источник (релизер): CD
Наличие сканов в содержимом раздачи: да
Треклист:
01. Beelzebub 3:18
02. Back to the Beginning 7:18
03. Seems Like a Lifetime Ago (Part One) 2:32
04. Seems Like a Lifetime Ago (Part Two) 4:30
05. Sample and Hold 5:12
06. Feels Good to Me 3:49
07. Either End of August 5:15
08. If You Can't Stand the Heat... 3:21
09. Springtime in Siberia 2:42
10. Adios a la Pasada (Goodbye To the Past) 8:42
Exact Audio Copy V1.0 beta 3 from 29. August 2011

EAC extraction logfile from 4. February 2013, 16:36

Bill Bruford / Feels Good To Me

Used drive : Optiarc BDRW BD-M100A Adapter: 0 ID: 0

Read mode : SecureUtilize accurate stream : YesDefeat audio cache : YesMake use of C2 pointers : No

Read offset correction : 102Overread into Lead-In and Lead-Out : NoFill up missing offset samples with silence : YesDelete leading and trailing silent blocks : NoNull samples used in CRC calculations : YesUsed interface : Native Win32 interface for Win NT & 2000

Used output format : User Defined EncoderSelected bitrate : 128 kBit/sQuality : HighAdd ID3 tag : NoCommand line compressor : C:\Program Files (x86)\Exact Audio Copy\Flac\flac.exeAdditional command line options : -V -8 -T "Date=%year%" -T "Genre=%genre%" %source%

TOC of the extracted CD

Track | Start | Length | Start sector | End sector --------------------------------------------------------- 1 | 0:00.00 | 3:27.57 | 0 | 15581 2 | 3:27.57 | 7:26.31 | 15582 | 49062 3 | 10:54.13 | 2:31.62 | 49063 | 60449 4 | 13:26.00 | 4:33.60 | 60450 | 80984 5 | 17:59.60 | 5:19.19 | 80985 | 104928 6 | 23:19.04 | 3:58.20 | 104929 | 122798 7 | 27:17.24 | 5:30.14 | 122799 | 147562 8 | 32:47.38 | 3:28.25 | 147563 | 163187 9 | 36:15.63 | 2:41.42 | 163188 | 175304 10 | 38:57.30 | 8:49.46 | 175305 | 215025 11 | 47:47.01 | 4:39.06 | 215026 | 235956

Range status and errors

Selected range

Filename C:\Users\User\Desktop\Rutracker\Bruford-Feels Good\Bill Bruford - Feels Good To Me.wav

Peak level 100.0 % Extraction speed 5.1 X Range quality 100.0 % Test CRC CB146250 Copy CRC CB146250 Copy OK

No errors occurred

End of status report

==== Log checksum 4C166F419835E8F4CF1E55F5932D5D6C12555B37339843FD06529FC1429F9674 ====
REM GENRE "Progressive Rock"REM DATE 1977REM DISCID A50C4A0BREM COMMENT "ExactAudioCopy v1.0b3"PERFORMER "Bill Bruford"TITLE "Feels Good To Me"FILE "Bill Bruford - Feels Good To Me.flac" WAVE TRACK 01 AUDIO TITLE "Beelzebub" PERFORMER "Bill Bruford" INDEX 01 00:00:00 TRACK 02 AUDIO TITLE "Back To The Beginning" PERFORMER "Bill Bruford" INDEX 00 03:21:02 INDEX 01 03:27:57 TRACK 03 AUDIO TITLE "Seems Like A Lifetime Ago (Part One)" PERFORMER "Bill Bruford" INDEX 00 10:49:32 INDEX 01 10:54:13 TRACK 04 AUDIO TITLE "Seems Like A Lifetime Ago (Part Two)" PERFORMER "Bill Bruford" INDEX 01 13:26:00 TRACK 05 AUDIO TITLE "Sample And Hold" PERFORMER "Bill Bruford" INDEX 00 17:55:03 INDEX 01 17:59:60 TRACK 06 AUDIO TITLE "Feels Good To Me" PERFORMER "Bill Bruford" INDEX 00 23:12:22 INDEX 01 23:19:04 TRACK 07 AUDIO TITLE "Either End Of August" PERFORMER "Bill Bruford" INDEX 00 27:10:42 INDEX 01 27:17:24 TRACK 08 AUDIO TITLE "If You Can't Stand The Heat......" PERFORMER "Bill Bruford" INDEX 00 32:40:56 INDEX 01 32:47:38 TRACK 09 AUDIO TITLE "Springtime In Siberia" PERFORMER "Bill Bruford" INDEX 00 36:12:08 INDEX 01 36:15:63 TRACK 10 AUDIO TITLE "Adios A La Pasada (Goodbye To The Past)" PERFORMER "Bill Bruford" INDEX 01 38:57:30 TRACK 11 AUDIO TITLE "Joe Frazier (bonus track)" PERFORMER "Bill Bruford" INDEX 00 47:40:19 INDEX 01 47:47:01
Японское издание известного шедевра,звук соответствует.


Трекер:  [ 05-Фев-2013 11:33 ]

  

Скачать .torrent

Размер .torrent файла 12 KB


Размер: 295 MB
Хэш (hash) релиза: e7e3901c77279896058cbc9be14b0192b9114caf

Еще никто не оставлял запись к записи скачать торрент Bill Bruford - Feels Good To Me - 1977, FLAC . Будь первым!

!Обратная связь