Скачать через торрент музыку If - If - 2003 бесплатно без регистрации torrent

Если у вас наблюдаются проблемы со скриншотами, переходом по ссылками, скачиванием торрентов - проблемы в блокировщике рекламы AdBlock. #хорошегоДня!


Статистика раздачи
Размер:  222 MB   |    Зарегистрирован:  4 года 9 месяцев   |    .torrent скачан:  167 раз   |   
Раздают:  1  
   
Загрузка...
 
Автор Сообщение

Galfimbul

avatar Galfimbul


If / If

Жанр: Progressive Rock
Страна-производитель диска: EU
Год издания: 2003 (1970)
Издатель (лейбл): Sunrise Records
Номер по каталогу: 30624072 SR
Страна: UK
Аудиокодек: FLAC (*.flac)
Тип рипа: image+.cue
Битрейт аудио: lossless
Продолжительность: 37:03
Источник (релизер): CD
Наличие сканов в содержимом раздачи: да
Треклист:
01 - I'm Reaching Out on All Sides (5:54)
02 - What Did I Say About The Box Jack (1:51)
03 - What Can a Friend Say (6:59)
04 - Woman, Can You See What This Thing Is All About (4:11)
05 - Raise The Level Of Your Conscious Mind (3:13)
06 - Dockland (4:43)
07 - The Promised Land (3:43)
Exact Audio Copy V1.0 beta 3 from 29. August 2011

EAC extraction logfile from 4. February 2013, 18:57

If / If (One)

Used drive : Optiarc BDRW BD-M100A Adapter: 0 ID: 0

Read mode : SecureUtilize accurate stream : YesDefeat audio cache : YesMake use of C2 pointers : No

Read offset correction : 102Overread into Lead-In and Lead-Out : NoFill up missing offset samples with silence : YesDelete leading and trailing silent blocks : NoNull samples used in CRC calculations : YesUsed interface : Native Win32 interface for Win NT & 2000

Used output format : User Defined EncoderSelected bitrate : 128 kBit/sQuality : HighAdd ID3 tag : NoCommand line compressor : C:\Program Files (x86)\Exact Audio Copy\Flac\flac.exeAdditional command line options : -V -8 -T "Date=%year%" -T "Genre=%genre%" %source%

TOC of the extracted CD

Track | Start | Length | Start sector | End sector --------------------------------------------------------- 1 | 0:00.00 | 5:44.59 | 0 | 25858 2 | 5:44.59 | 8:22.46 | 25859 | 63554 3 | 14:07.30 | 6:56.20 | 63555 | 94774 4 | 21:03.50 | 4:12.18 | 94775 | 113692 5 | 25:15.68 | 3:16.15 | 113693 | 128407 6 | 28:32.08 | 4:45.70 | 128408 | 149852 7 | 33:18.03 | 3:44.65 | 149853 | 166717

Range status and errors

Selected range

Filename C:\Users\User\Desktop\Rutracker\If\If - If (One).wav

Peak level 100.0 % Extraction speed 4.7 X Range quality 100.0 % Test CRC F66B2563 Copy CRC F66B2563 Copy OK

No errors occurred

End of status report

==== Log checksum E53D422BE15D636CD7AF4D49EF276A810E84F6158F37A53B04D79BE49E280750 ====
REM GENRE "Progressive Rock"REM DATE 1970REM DISCID 4F08AE07REM COMMENT "ExactAudioCopy v1.0b3"PERFORMER "If"TITLE "If (One)"FILE "If - If (One).flac" WAVE TRACK 01 AUDIO TITLE "I'm Reaching Out ON All Sides" PERFORMER "If" INDEX 01 00:00:00 TRACK 02 AUDIO TITLE "What Did I Say About That Box, Jack?" PERFORMER "If" INDEX 01 05:44:59 TRACK 03 AUDIO TITLE "What Can A Friend Say?" PERFORMER "If" INDEX 01 14:07:30 TRACK 04 AUDIO TITLE "Woman Can You See (What This Big Thing Is All About)" PERFORMER "If" INDEX 01 21:03:50 TRACK 05 AUDIO TITLE "Raise The Level Of The Conscious Mind" PERFORMER "If" INDEX 01 25:15:68 TRACK 06 AUDIO TITLE "Dockland" PERFORMER "If" INDEX 01 28:32:08 TRACK 07 AUDIO TITLE "The Promised Land" PERFORMER "If" INDEX 01 33:18:03
Замечательный аглицкий джаз-рок коллектив начала 70-х и,соответственно,их дебютный альбом.


Трекер:  [ 05-Фев-2013 11:33 ]

  

Скачать .torrent

Размер .torrent файла 18 KB


Размер: 222 MB
Хэш (hash) релиза: 1c8d8df601b3abcf6d703b8d974cf6a0e5ff65db

Еще никто не оставлял запись к записи скачать торрент If - If - 2003 . Будь первым!

!Обратная связь