Скачать через торрент музыку Samurai - Kappa - 1971, FLAC бесплатно без регистрации torrent

Если у вас наблюдаются проблемы со скриншотами, переходом по ссылками, скачиванием торрентов - проблемы в блокировщике рекламы AdBlock. #хорошегоДня!


Статистика раздачи
Размер:  247 MB   |    Зарегистрирован:  4 года 6 месяцев   |    .torrent скачан:  95 раз   |   
Раздают:  1  
   
Загрузка...
 
Автор Сообщение

Galfimbul

avatar Galfimbul


Samurai / Kappa

Жанр: Progressive-Rock
Страна-производитель диска: Japan
Год издания: 1971
Издатель (лейбл): Philips (Japan)
Номер по каталогу: PCD-1598
Страна: Japan
Аудиокодек: FLAC (*.flac)
Тип рипа: image+.cue
Битрейт аудио: lossless
Продолжительность: 43:08
Источник (релизер): CD
Наличие сканов в содержимом раздачи: да
Треклист:
01.Trauma
02.Same Old Reason
03.Daredatta
04.Vision Of Tomorrow
05.King Riff And Snow Flakes
Exact Audio Copy V1.0 beta 3 from 29. August 2011

EAC extraction logfile from 4. February 2013, 20:12

Samurai / Kappa

Used drive : Optiarc BDRW BD-M100A Adapter: 0 ID: 0

Read mode : SecureUtilize accurate stream : YesDefeat audio cache : YesMake use of C2 pointers : No

Read offset correction : 102Overread into Lead-In and Lead-Out : NoFill up missing offset samples with silence : YesDelete leading and trailing silent blocks : NoNull samples used in CRC calculations : YesUsed interface : Native Win32 interface for Win NT & 2000

Used output format : User Defined EncoderSelected bitrate : 128 kBit/sQuality : HighAdd ID3 tag : NoCommand line compressor : C:\Program Files (x86)\Exact Audio Copy\Flac\flac.exeAdditional command line options : -V -8 -T "Date=%year%" -T "Genre=%genre%" %source%

TOC of the extracted CD

Track | Start | Length | Start sector | End sector --------------------------------------------------------- 1 | 0:00.00 | 10:18.20 | 0 | 46369 2 | 10:18.20 | 2:49.52 | 46370 | 59096 3 | 13:07.72 | 3:38.57 | 59097 | 75503 4 | 16:46.54 | 3:52.58 | 75504 | 92961 5 | 20:39.37 | 22:28.42 | 92962 | 194103

Range status and errors

Selected range

Filename C:\Users\User\Desktop\Rutracker\Samurai-Japan\Samurai - Kappa.wav

Peak level 95.9 % Extraction speed 4.8 X Range quality 100.0 % Test CRC 7DBC5143 Copy CRC 7DBC5143 Copy OK

No errors occurred

End of status report

==== Log checksum 7119875F3A23E3D4822C99B64A05661C14FB83EF9F0D2E24CD19A583E2982829 ====
REM GENRE "Progressive Rock"REM DATE 1971REM DISCID 330A1C05REM COMMENT "ExactAudioCopy v1.0b3"PERFORMER "Samurai"TITLE "Kappa"FILE "Samurai - Kappa.flac" WAVE TRACK 01 AUDIO TITLE "Trauma" PERFORMER "Samurai" FLAGS DCP INDEX 01 00:00:00 TRACK 02 AUDIO TITLE "Same Old Reason" PERFORMER "Samurai" FLAGS DCP INDEX 00 10:15:40 INDEX 01 10:18:20 TRACK 03 AUDIO TITLE "Daredatta" PERFORMER "Samurai" FLAGS DCP INDEX 00 13:05:17 INDEX 01 13:07:72 TRACK 04 AUDIO TITLE "Vision Of Tomorrow" PERFORMER "Samurai" FLAGS DCP INDEX 00 16:43:74 INDEX 01 16:46:54 TRACK 05 AUDIO TITLE "King Riff And Snow Flakes" PERFORMER "Samurai" FLAGS DCP INDEX 00 20:36:57 INDEX 01 20:39:37
Как и обещал,вот японский прогрессив-рок коллектив Samurai.


Трекер:  [ 05-Фев-2013 11:33 ]

  

Скачать .torrent

Размер .torrent файла 20 KB


Размер: 247 MB
Хэш (hash) релиза: dec2501190d7082f90bc5970e4ed26fac33e37ae

Еще никто не оставлял запись к записи скачать торрент Samurai - Kappa - 1971, FLAC . Будь первым!

!Обратная связь