Скачать через торрент музыку Hero - Hero - 2002 бесплатно без регистрации torrent

Если у вас наблюдаются проблемы со скриншотами, переходом по ссылками, скачиванием торрентов - проблемы в блокировщике рекламы AdBlock. #хорошегоДня!


Статистика раздачи
Размер:  240 MB   |    Зарегистрирован:  4 года 8 месяцев   |    .torrent скачан:  140 раз   |   
Раздают:  1  
   
Загрузка...
 
Автор Сообщение

Galfimbul

avatar Galfimbul


Hero / Hero

Жанр: Progressive & Art-Rock
Страна-производитель диска: Australia
Год издания: 2002 (1973)
Издатель (лейбл): Progressive Line
Номер по каталогу: PL 560
Аудиокодек: FLAC (*.flac)
Тип рипа: image+.cue
Битрейт аудио: lossless
Продолжительность: 46:18
Источник (релизер): CD
Наличие сканов в содержимом раздачи: да
Треклист:
01.Merry Go Round
02.Crumbs Of A Day
03.Sunday Best
04.Seminar
05.Childrens Game
06.Knock
07.Clapping And Smiling
08.Dew-Drops
09.Buzzard
Exact Audio Copy V1.0 beta 3 from 29. August 2011

EAC extraction logfile from 4. February 2013, 10:32

Hero / Hero

Used drive : Optiarc BDRW BD-M100A Adapter: 0 ID: 0

Read mode : SecureUtilize accurate stream : YesDefeat audio cache : YesMake use of C2 pointers : No

Read offset correction : 102Overread into Lead-In and Lead-Out : NoFill up missing offset samples with silence : YesDelete leading and trailing silent blocks : NoNull samples used in CRC calculations : YesUsed interface : Native Win32 interface for Win NT & 2000

Used output format : User Defined EncoderSelected bitrate : 128 kBit/sQuality : HighAdd ID3 tag : NoCommand line compressor : C:\Program Files (x86)\Exact Audio Copy\Flac\flac.exeAdditional command line options : -V -8 -T "Date=%year%" -T "Genre=%genre%" %source%

TOC of the extracted CD

Track | Start | Length | Start sector | End sector --------------------------------------------------------- 1 | 0:00.00 | 4:24.21 | 0 | 19820 2 | 4:24.21 | 4:42.45 | 19821 | 41015 3 | 9:06.66 | 5:59.16 | 41016 | 67956 4 | 15:06.07 | 3:17.45 | 67957 | 82776 5 | 18:23.52 | 5:02.56 | 82777 | 105482 6 | 23:26.33 | 4:52.19 | 105483 | 127401 7 | 28:18.52 | 9:06.14 | 127402 | 168365 8 | 37:24.66 | 7:05.60 | 168366 | 200300 9 | 44:30.51 | 1:47.55 | 200301 | 208380

Range status and errors

Selected range

Filename C:\Users\User\Desktop\Rutracker\Hero\Hero - Hero.wav

Peak level 97.7 % Extraction speed 5.0 X Range quality 100.0 % Test CRC 89824EDE Copy CRC 89824EDE Copy OK

No errors occurred

End of status report

==== Log checksum E4DFF022CB3EFF23AF39BA1D22D1044D75AD0A98E271891943C2F65F70D6444A ====
REM GENRE "Progressive Rock"REM DATE 1973REM DISCID 6D0ADA09REM COMMENT "ExactAudioCopy v1.0b3"PERFORMER "Hero"TITLE "Hero"FILE "Hero - Hero.flac" WAVE TRACK 01 AUDIO TITLE "Merry Go ROund" PERFORMER "Hero" INDEX 01 00:00:00 TRACK 02 AUDIO TITLE "Crumbs of a Day" PERFORMER "Hero" INDEX 00 04:22:21 INDEX 01 04:24:21 TRACK 03 AUDIO TITLE "Sunday Best" PERFORMER "Hero" INDEX 00 09:04:65 INDEX 01 09:06:66 TRACK 04 AUDIO TITLE "Seminar" PERFORMER "Hero" INDEX 00 15:04:07 INDEX 01 15:06:07 TRACK 05 AUDIO TITLE "Childrens Game" PERFORMER "Hero" INDEX 00 18:21:52 INDEX 01 18:23:52 TRACK 06 AUDIO TITLE "Knock" PERFORMER "Hero" INDEX 00 23:24:32 INDEX 01 23:26:33 TRACK 07 AUDIO TITLE "Clapping and Smiling" PERFORMER "Hero" INDEX 00 28:16:51 INDEX 01 28:18:52 TRACK 08 AUDIO TITLE "Dew-Drops" PERFORMER "Hero" INDEX 00 37:22:65 INDEX 01 37:24:66 TRACK 09 AUDIO TITLE "Buzzard" PERFORMER "Hero" INDEX 00 44:28:51 INDEX 01 44:30:51
Замечательный образчик прогрессив-рока начала 70-х.


Трекер:  [ 04-Фев-2013 16:45 ]

  

Скачать .torrent

Размер .torrent файла 19 KB


Размер: 240 MB
Хэш (hash) релиза: f2cf6dca93f406901f03d7ccf4385bb4d9db7940

Торренты, похожие на Hero - Hero - 2002 скачать торрент

Форум Название Автор Размер S L Добавлен
Зарубежный Rock ·· (Progressive Rock) Hero - Hero [Remastered 2002] - 1974, MP3, 320 kbps _N_ 112366615107 MB 0 0 1343558160

13:36

29-Июл-12

Саундтреки к играм (mp3) ·· (Score / Chiptune, Electronic) Shantae, Risky's Revenge, and the Pirate's Curse, Half-Genie Hero by Jake Kaufman (2002-2016) (MP3, V0) Galfimbul 572549888546 MB 0 0 1485104179

19:56

22-Янв-17

Саундтреки к играм (lossless) ·· (Score / Chiptune, Electronic) Shantae, Risky's Revenge, and the Pirate's Curse, Half-Genie Hero by Jake Kaufman (2002-2016) {WEB}, CD (FLAC), tracks, lossless Galfimbul 20880780961.94 GB 0 0 1485104127

19:55

22-Янв-17

Электронная музыка (lossless) ·· (Trance / Euro House) Anaconda - I Need A Hero (Promo CD-Maxi) (Dance Division [SAMPCM 11755 2]) - 2002, FLAC (image+.cue), lossless Galfimbul 317094196302 MB 0 0 1329315248

17:14

15-Фев-12

Саундтреки к фильмам и мультфильмам (mp3) ·· (Soundtrack) Герой / Hero (Чжан Имоу) - 2002, MP3, 320 Galfimbul 142342296136 MB 0 0 1292265707

21:41

13-Дек-10

Саундтреки к играм (mp3) ·· (Soundtrack/Game) Heroes of Might and Magic IV - 2002, WAVPack (tracks), ~198kbit/s Galfimbul 109593905105 MB 0 0 1292261017

20:23

13-Дек-10

Саундтреки к играм (mp3) ·· (Soundtrack/Game) Heroes of Might and Magic IV (Gamerip) - 2002 [MP3, 128] Galfimbul 7786601374 MB 0 0 1292261014

20:23

13-Дек-10

Саундтреки к играм (mp3) ·· (Soundtrack) Heroes Of Might And Magic 4: The Soundtrack - 2002, MP3 (tracks), 170 kbps Galfimbul 10183819597 MB 0 0 1292260790

20:19

13-Дек-10

Еще никто не оставлял запись к записи скачать торрент Hero - Hero - 2002 . Будь первым!

!Обратная связь