Скачать через торрент музыку Crashdiet - The Savage Playground - 2013, бесплатно без регистрации torrent

Если у вас наблюдаются проблемы со скриншотами, переходом по ссылками, скачиванием торрентов - проблемы в блокировщике рекламы AdBlock. #хорошегоДня!


Статистика раздачи
Размер:  475 MB   |    Зарегистрирован:  4 года 9 месяцев   |    .torrent скачан:  156 раз   |   
Раздают:  1  
   
Загрузка...
 
Автор Сообщение

Galfimbul

avatar Galfimbul


Crashdiet / The Savage Playground

Жанр: Glam Metal
Год издания: 2013
Издатель (лейбл): Frontiers Records
Номер по каталогу: FR CD 854
Страна: Sweden
Аудиокодек: FLAC (*.flac)
Тип рипа: image+.cue
Битрейт аудио: lossless
Продолжительность: 01:02:56
Источник (релизер): twistedsam
Наличие сканов в содержимом раздачи: да (600 DPI)
Треклист:
01 – Change The World
02 – Cocaine Cowboys
03 – Anarchy
04 – California
05 – Lickin’ Dog
06 – Circus
07 – Sin City
08 – Got A Reason
09 – Drinkin Without You
10 – Snakes In Paradise
11 – Damaged Kid
12 – Excited
13 – Garden Of Babylon
14 – Liquid Jesus
Exact Audio Copy V0.99 prebeta 5 from 4. May 2009

EAC extraction logfile from 3. February 2013, 14:14

Crashdïet / The Savage Playground

Used drive : TSSTcorpDVD+-RW TS-H653G Adapter: 0 ID: 0

Read mode : SecureUtilize accurate stream : YesDefeat audio cache : YesMake use of C2 pointers : No

Read offset correction : 6Overread into Lead-In and Lead-Out : NoFill up missing offset samples with silence : YesDelete leading and trailing silent blocks : NoNull samples used in CRC calculations : YesUsed interface : Native Win32 interface for Win NT & 2000

Used output format : User Defined EncoderSelected bitrate : 40 kBit/sQuality : HighAdd ID3 tag : NoCommand line compressor : F:\progjes\## programma's van C\EAC\Exact Audio Copy\Flac\flac.exeAdditional command line options : -6 -V %s

TOC of the extracted CD

Track | Start | Length | Start sector | End sector --------------------------------------------------------- 1 | 0:00.00 | 5:34.17 | 0 | 25066 2 | 5:34.17 | 4:19.57 | 25067 | 44548 3 | 9:53.74 | 2:58.60 | 44549 | 57958 4 | 12:52.59 | 4:32.53 | 57959 | 78411 5 | 17:25.37 | 3:07.33 | 78412 | 92469 6 | 20:32.70 | 4:42.42 | 92470 | 113661 7 | 25:15.37 | 3:36.13 | 113662 | 129874 8 | 28:51.50 | 4:32.36 | 129875 | 150310 9 | 33:24.11 | 4:11.70 | 150311 | 169205 10 | 37:36.06 | 4:27.01 | 169206 | 189231 11 | 42:03.07 | 3:47.59 | 189232 | 206315 12 | 45:50.66 | 5:35.24 | 206316 | 231464 13 | 51:26.15 | 7:13.44 | 231465 | 263983 14 | 58:39.59 | 4:16.26 | 263984 | 283209

Range status and errors

Selected range

Filename C:\Users\sammy\Music\Crashdïet - The Savage Playground (2013)\Crashdïet - The Savage Playground.wav

Peak level 99.9 % Range quality 100.0 % Copy CRC 26B4B734 Copy OK

No errors occurred

AccurateRip summary

Track 1 not present in databaseTrack 2 not present in databaseTrack 3 not present in databaseTrack 4 not present in databaseTrack 5 not present in databaseTrack 6 not present in databaseTrack 7 not present in databaseTrack 8 not present in databaseTrack 9 not present in databaseTrack 10 not present in databaseTrack 11 not present in databaseTrack 12 not present in databaseTrack 13 not present in databaseTrack 14 not present in database

None of the tracks are present in the AccurateRip database

End of status report
Simon Cruz– Vocals
Peter London – Bass
Martin Sweet – Guitar
Eric Young – Drums


Трекер:  [ 04-Фев-2013 16:46 ]

  

Скачать .torrent

Размер .torrent файла 20 KB


Размер: 475 MB
Хэш (hash) релиза: e2e276a807324ebaa2a0c35e334d831bc08ddec0

Торренты, похожие на Crashdiet - The Savage Playground - 2013, скачать торрент

Форум Название Автор Размер S L Добавлен
Зарубежный Rock ·· (Hard Rock/Glam Metal) Crashdiet - The Savage Playground - 2013, MP3, 320 kbps Galfimbul 140931827134 MB 0 0 1358950500

17:15

23-Янв-13

Еще никто не оставлял запись к записи скачать торрент Crashdiet - The Savage Playground - 2013, . Будь первым!

!Обратная связь