Скачать через торрент Ван-Пис One Piece бесплатно Аниме Все серии на русском torrent

Если у вас наблюдаются проблемы со скриншотами, переходом по ссылками, скачиванием торрентов - проблемы в блокировщике рекламы AdBlock. #хорошегоДня!


Статистика раздачи
Размер:  5.53 GB   |    Зарегистрирован:  4 года 9 месяцев   |    .torrent скачан:  44 раза   |   
Раздают:  1  
   
Загрузка...
 
Автор Сообщение

Galfimbul

avatar Galfimbul


Ван-Пис [ТВ] / One Piece TV

Год выпуска: 1999
Страна: Япония
Жанр: приключения, комедия, фэнтези, сёнэн
Продолжительность: ТВ>500 эп. + , 24 мин.
Озвучание: Одноголосый, Persona99
Перевод: Kage Project
Русские субтитры: есть
Две звуковые дорожки:
1.рyсский закадровый.
2.оригинал.яп.
Хардсаб: Нет

Режиссер: Уда Коносукэ

Описание: Это было во времена, когда пираты были владыками морей.
Множество кораблей бороздили океаны, сражаясь между собой, в поисках величайшего в мире сокровища,
имя которому One Piece. Эта благодать была собрана за долгие годы приключений легендарным
пиратскимкапитаном, Золотым Роджером, который по праву заслужил титул Короля Пиратов.
Наш главный герой - простой парнишка по имени Манки Д. Луффи, который всегда хотел стать пиратом.
Однажды, он случайно съел один из Дьявольских фруктов, которые даруют людям нечеловеческие возможности,
и стал резиновым человеком - лучше увидеть самим.

Доп. информация: Доп. информация:
Снято по манге: Ван-Пис
Автор оригинала: Ода Эйитиро
Качество: HDTVRip
Формат: AVI
Видео кодек: XviD
Аудио кодек: ac3
Видео: 704x396/23.976/1290kbpc
Аудио: RUS - JAP - 48000Hz 192 kb/s , 2.0
Мoнки Д. Луффи
Маюми Танака.
http://www.world-art.ru/people.php?id=2177
Общее
Полное имя : One Piece[13]TV\574-One Piece[Persona99][704x396 XviD].rus.jap.avi
Формат : AVI
Формат/Информация : Audio Video Interleave
Размер файла : 285 Мбайт
Продолжительность : 23 м.
Общий поток : 1681 Кбит/сек
Программа кодирования : VirtualDubMod 1.5.10.2 (build 2540/release)
Библиотека кодирования : VirtualDubMod build 2540/release

Видео
Идентификатор : 0
Формат : MPEG-4 Visual
Профиль формата : Advanced Simple@L5
Параметр BVOP формата : 2
Параметр QPel формата : Нет
Параметр GMC формата : Без точки перехода
Параметр матрицы формата : Default (H.263)
Идентификатор кодека : XVID
Идентификатор кодека/Подсказка : XviD
Продолжительность : 23 м.
Битрейт : 1280 Кбит/сек
Ширина : 704 пикс.
Высота : 396 пикс.
Соотношение сторон : 16:9
Частота кадров : 29,970 кадр/сек
Цветовое пространство : YUV
Подвыборка цветности : 4:2:0
Битовая глубина : 8 бит
Тип развёртки : Прогрессивная
Метод сжатия : С потерями
Бит/(Пиксели*Кадры) : 0.153
Размер потока : 217 Мбайт (76%)
Библиотека кодирования : XviD 1.2.1 (UTC 2008-12-04)

Аудио #1
Идентификатор : 1
Формат : AC-3
Формат/Информация : Audio Coding 3
Расширение режима : CM (complete main)
Идентификатор кодека : 2000
Продолжительность : 23 м.
Вид битрейта : Постоянный
Битрейт : 192 Кбит/сек
Каналы : 2 канала
Расположение каналов : Front: L R
Частота : 48,0 КГц
Битовая глубина : 16 бит
Метод сжатия : С потерями
Размер потока : 32,5 Мбайт (11%)
Выравнивание : Разделение по промежуткам
Продолжительность промежутка : 33 мс. (1,00 видеокадр)
Время предзагрузки промежутка : 500 ms

Аудио #2
Идентификатор : 2
Формат : AC-3
Формат/Информация : Audio Coding 3
Расширение режима : CM (complete main)
Идентификатор кодека : 2000
Продолжительность : 23 м.
Вид битрейта : Постоянный
Битрейт : 192 Кбит/сек
Каналы : 2 канала
Расположение каналов : Front: L R
Частота : 48,0 КГц
Битовая глубина : 16 бит
Метод сжатия : С потерями
Размер потока : 32,5 Мбайт (11%)
Выравнивание : Разделение по промежуткам
Продолжительность промежутка : 33 мс. (1,00 видеокадр)
Время предзагрузки промежутка : 500 ms


Трекер:  [ 04-Фев-2013 16:15 ]

  

Скачать .torrent

Размер .torrent файла 33 KB


Размер: 5.53 GB
Хэш (hash) релиза: 37c5bb670f6a4d28ad702b57948e34d34b78b14e
Подписка на обновления:

Торренты, похожие на Ван-Пис One Piece скачать торрент

Форум Название Автор Размер S L Добавлен
Аниме | HD Rips ·· Ван-Пис / One Piece (Уда Коносукэ) [TV] [801-804 из ?] [без хардсаба] [RUS(int),JAP+SUB] [1999, приключения, комедия, фэнтези, сёнэн, HDTVRip] [720p] Galfimbul 20781134321.94 GB 0 0 1504713722

19:02

6-Сен-17

Аниме | HD Rips ·· Ван-Пис / One Piece (Уда Коносукэ) [TV] [751-793из ?] [без хардсаба] [RUS(int),JAP+SUB] [1999, приключения, комедия, фэнтези, сёнэн, HDTVRip] [720p] Galfimbul 2164058142420.15 GB 0 0 1498213898

13:31

23-Июн-17

Аниме | HD Rips ·· Ван-Пис / One Piece [TV] [751-791 из >888] [без хардсаба] [JAP+SUB] [1999, приключения, комедия, фэнтези, сёнэн, HDTVRip] [720p] Galfimbul 2001526064418.64 GB 0 0 1496795612

03:33

7-Июн-17

Аниме | Rips ·· Ван-Пис / One Piece [TV] [747-791 из ххх] [Без хардсаба] [RUS(int), JAP, +SUB] [1999, приключения, комедия, фэнтези, сёнэн, HDTVRip][HWP] Galfimbul 1440326370613.41 GB 0 0 1496795543

03:32

7-Июн-17

Аниме | HD Rips ·· Ван-Пис / One Piece (Уда Коносукэ) [TV] [751-790из ?] [без хардсаба] [RUS(int),JAP+SUB] [1999, приключения, комедия, фэнтези, сёнэн, HDTVRip] [720p] Galfimbul 1997084579918.6 GB 0 0 1496256912

21:55

31-Май-17

Аниме | Rips ·· Ван-Пис / One Piece [TV] [747-790 из ххх] [Без хардсаба] [RUS(int), JAP, +SUB] [1999, приключения, комедия, фэнтези, сёнэн, HDTVRip][HWP] Galfimbul 1408155724513.11 GB 0 0 1496213993

09:59

31-Май-17

Аниме | HD Rips ·· Ван-Пис / One Piece [TV] [751-790 из >888] [без хардсаба] [JAP+SUB] [1999, приключения, комедия, фэнтези, сёнэн, HDTVRip] [720p] Galfimbul 1949354726718.15 GB 0 0 1496076354

19:45

29-Май-17

Аниме | Rips ·· Ван-Пис / One Piece [TV] [747-789 из ххх] [Без хардсаба] [RUS(int), JAP, +SUB] [1999, приключения, комедия, фэнтези, сёнэн, HDTVRip][HWP] Galfimbul 1376019437912.82 GB 0 0 1495603923

08:32

24-Май-17

Аниме | HD Rips ·· Ван-Пис / One Piece (Уда Коносукэ) [TV] [751-789из ?] [без хардсаба] [RUS(int),JAP+SUB] [1999, приключения, комедия, фэнтези, сёнэн, HDTVRip] [720p] Galfimbul 1943093482918.1 GB 0 0 1495565107

21:45

23-Май-17

Аниме | HD Rips ·· Ван-Пис / One Piece [TV] [751-789 из >888] [без хардсаба] [JAP+SUB] [1999, приключения, комедия, фэнтези, сёнэн, HDTVRip] [720p] Galfimbul 1893004634417.63 GB 0 0 1495470902

19:35

22-Май-17

Аниме | HD Rips ·· Ван-Пис / One Piece [TV] [751-788 из >888] [без хардсаба] [JAP+SUB] [1999, приключения, комедия, фэнтези, сёнэн, HDTVRip] [720p] Galfimbul 1838687761617.12 GB 0 0 1494862312

18:31

15-Май-17

Аниме | HD Rips ·· Ван-Пис / One Piece (Уда Коносукэ) [TV] [751-787из ?] [без хардсаба] [RUS(int),JAP+SUB] [1999, приключения, комедия, фэнтези, сёнэн, HDTVRip] [720p] Galfimbul 1834017855117.08 GB 0 0 1494862304

18:31

15-Май-17

Аниме | Rips ·· Ван-Пис / One Piece [TV] [747-787 из ххх] [Без хардсаба] [RUS(int), JAP, +SUB] [1999, приключения, комедия, фэнтези, сёнэн, HDTVRip][HWP] Galfimbul 1312648988012.22 GB 0 0 1494424830

17:00

10-Май-17

Аниме | Rips ·· Ван-Пис / One Piece [TV] [747-786 из ххх] [Без хардсаба] [RUS(int), JAP, +SUB] [1999, приключения, комедия, фэнтези, сёнэн, HDTVRip][HWP] Galfimbul 1280780899011.93 GB 0 0 1493908194

17:29

4-Май-17

Аниме | HD Rips ·· Ван-Пис / One Piece [TV] [751-786 из >888] [без хардсаба] [JAP+SUB] [1999, приключения, комедия, фэнтези, сёнэн, HDTVRip] [720p] Galfimbul 1743450933116.24 GB 0 0 1493726953

15:09

2-Май-17

Аниме | HD Rips ·· Ван-Пис / One Piece (Уда Коносукэ) [TV] [751-785из ?] [без хардсаба] [RUS(int),JAP+SUB] [1999, приключения, комедия, фэнтези, сёнэн, HDTVRip] [720p] Galfimbul 1729469079116.11 GB 0 0 1493403923

21:25

28-Апр-17

Аниме | Rips ·· Ван-Пис / One Piece [TV] [747-785 из ххх] [Без хардсаба] [RUS(int), JAP, +SUB] [1999, приключения, комедия, фэнтези, сёнэн, HDTVRip][HWP] Galfimbul 1248911566911.63 GB 0 0 1493361056

09:30

28-Апр-17

Аниме | HD Rips ·· Ван-Пис / One Piece (Уда Коносукэ) [TV] [751-783 из ?] [без хардсаба] [RUS(int),JAP+SUB] [1999, приключения, комедия, фэнтези, сёнэн, HDTVRip] [720p] Galfimbul 1630890751815.19 GB 0 0 1493136383

19:06

25-Апр-17

Аниме | HD Rips ·· Ван-Пис / One Piece [TV] [751-785 из >888] [без хардсаба] [JAP+SUB] [1999, приключения, комедия, фэнтези, сёнэн, HDTVRip] [720p] Galfimbul 1693884885415.78 GB 0 0 1493046037

18:00

24-Апр-17

Аниме | Rips ·· Ван-Пис / One Piece [TV] [747-784 из ххх] [Без хардсаба] [RUS(int), JAP, +SUB] [1999, приключения, комедия, фэнтези, сёнэн, HDTVRip][HWP] Galfimbul 1217046260311.33 GB 0 0 1492857716

13:41

22-Апр-17

Еще никто не оставлял запись к записи скачать торрент Ван-Пис One Piece . Будь первым!

!Обратная связь