Скачать через торрент [iPad] Париж: Путешествие во времени Paris, The Great Saga бесплатно русская версия torrent активатор

Если у вас наблюдаются проблемы со скриншотами, переходом по ссылками, скачиванием торрентов - проблемы в блокировщике рекламы AdBlock. #хорошегоДня!


Статистика раздачи
Размер:  2.11 GB   |    Зарегистрирован:  4 года 8 месяцев   |    .torrent скачан:  54 раза   |   
Раздают:  1  
   
Загрузка...
 
Автор Сообщение

Galfimbul

avatar Galfimbul


Париж: Путешествие во времени / Paris, The Great Saga

Год выпуска: 2012
Страна: Франция
Студия: CanalSat, PLANETE+
Жанр: Документальный, путешествие, туризм
Продолжительность: 01:32:30
Перевод: Профессиональный (двухголосый закадровый) (Омикрон)
Оригинальная аудиодорожка: есть
Cубтитры: русские и английские
Режиссёр: Ксавье Лефевр, Ален Зеноу, Алексис Барбье-Буве/Xavier Lefèvre, Alain Zenoy, Alexis Barbier-Bouvet

Описание:
Встаньте у штурвала машины времени и отправляйтесь в захватывающее интерактивное путешествие. Пройдитесь по виртуальному Парижу, станьте очевидцем самых увлекательных моментов в истории этого города. Такого Парижа Вы ещё не видели...

Качество исходника: BDRemux - Париж: Путешествие во времени / Paris, The Great Saga (Paris, la ville à remonter le temps) / 2012 / ПД (Омикрон), СТ / Blu-Ray Remux (1080p)
Качество: BDRip
Разрешение:1024х576
Формат: MP4
Видео: H.264, 16:9 , 3000kbit/s; 23.976fps

Аудио 1: Russian/DVO, AAC, 121kbit/s; 2ch; 48KHz
Аудио 2: French/Original, AAC, 129kbit/s; 2ch; 48KHz
Media Type: MovieXID: Apple:vendor_id:2012-0Content ID: 0Director: Ксавье Лефевр, Ален Зеноу, Алексис Барбье-БувеRating: UnratedLong Description: Встаньте у штурвала машины времени и отправляйтесь в захватывающее интерактивное путешествие. Пройдитесь по виртуальному Парижу, станьте очевидцем самых увлекательных моментов в истории этого города. Такого Парижа Вы ещё не видели...Description: Встаньте у штурвала машины времени и отправляйтесь в захватывающее интерактивное путешествие.Release Date: 2012-01-01T07:00:00ZGenre: DocumentaryName: Париж: Путешествие во времени
бщееПолное имя : C:\Handbrake\Париж Путешествие во времени.2012.x264.BDRip.1024x.m4vФормат : MPEG-4Идентификатор кодека : M4VРазмер файла : 2,11 ГбайтПродолжительность : 1 ч. 32 м.Режим общего битрейта : ПеременныйОбщий поток : 3264 Кбит/секНазвание фильма : Париж: Путешествие во времениЖанр : DocumentaryДата записи : UTC 2012-01-01 07:00:00Дата кодирования : UTC 2013-02-03 19:34:31Дата пометки : UTC 2013-02-03 20:11:09Программа кодирования : MkvToMp4 []www.mkvtomp4.ru] version 0.222Обложка : Yesdesc : Встаньте у штурвала машины времени и отправляйтесь в захватывающее интерактивное путешествие.ldes : Встаньте у штурвала машины времени и отправляйтесь в захватывающее интерактивное путешествие. Пройдитесь по виртуальному Парижу, станьте очевидцем самых увлекательных моментов в истории этого города. Такого Парижа Вы ещё не видели...hdvd : 0stik : 9akID : -1sfID : 0cnID : 0xid : Apple:vendor_id:2012-0iTunEXTC : mpaa|Unrated|600|iTunMOVI : <?xml version="1.0" encoding="UTF-8"?> / <!DOCTYPE plist PUBLIC "-//Apple//DTD PLIST 1.0//EN" "http://www.apple.com/DTDs/PropertyList-1.0.dtd"> / <plist version="1.0"> / <dict> / <key>directors</key> / <array> / <dict> / <key>name</key> / <string>Ксавье Лефевр</string> / </dict> / <dict> / <key>name</key> / <string>Ален Зеноу</string> / </dict> / <dict> / <key>name</key> / <string>Алексис Барбье-Буве</string> / </dict> / </array> / </dict> / </plist>

ВидеоИдентификатор : 1Формат : AVCФормат/Информация : Advanced Video CodecПрофиль формата : <a href="mailto:High@L4.0Параметр" class="postLink">High@L4.0Параметр</a> CABAC формата : ДаПараметр ReFrames формата : 9 кадровИдентификатор кодека : avc1Идентификатор кодека/Информация : Advanced Video CodingПродолжительность : 1 ч. 32 м.Битрейт : 3000 Кбит/секМаксимальный битрейт : 17,7 Мбит/секШирина : 1024 пикселяВысота : 576 пикселейСоотношение сторон : 16:9Режим частоты кадров : ПеременныйЧастота кадров : 23,976 кадра/секМинимальная частота кадров : 23,810 кадра/секМаксимальная частота кадров : 24,272 кадра/секЦветовое пространство : YUVСубдискретизация насыщенности : 4:2:0Битовая глубина : 8 битТип развёртки : ПрогрессивнаяБит/(Пиксели*Кадры) : 0.212Размер потока : 1,94 Гбайт (92%)Библиотека кодирования : x264 core 120Настройки программы : cabac=1 / ref=9 / deblock=1:0:0 / analyse=0x3:0x113 / me=umh / subme=9 / psy=1 / psy_rd=1.00:0.00 / mixed_ref=1 / me_range=32 / chroma_me=1 / trellis=1 / 8x8dct=1 / cqm=0 / deadzone=21,11 / fast_pskip=1 / chroma_qp_offset=-2 / threads=12 / sliced_threads=0 / nr=0 / decimate=1 / interlaced=0 / bluray_compat=0 / constrained_intra=0 / bframes=6 / b_pyramid=2 / b_adapt=2 / b_bias=0 / direct=1 / weightb=1 / open_gop=0 / weightp=2 / keyint=240 / keyint_min=24 / scenecut=40 / intra_refresh=0 / rc_lookahead=40 / rc=2pass / mbtree=1 / bitrate=3000 / ratetol=1.0 / qcomp=0.60 / qpmin=3 / qpmax=69 / qpstep=4 / cplxblur=20.0 / qblur=0.5 / ip_ratio=1.40 / aq=1:1.00Язык : EnglishДата кодирования : UTC 2013-02-03 19:34:31Дата пометки : UTC 2013-02-03 19:35:33Основные цвета : BT.709Характеристики трансфера : BT.709Коэффициенты матрицы : BT.709

Аудио #1Идентификатор : 2Формат : AACФормат/Информация : Advanced Audio CodecПрофиль формата : LCИдентификатор кодека : 40Продолжительность : 1 ч. 32 м.Вид битрейта : ПеременныйБитрейт : 121 Кбит/секМаксимальный битрейт : 188 Кбит/секКаналы : 2 каналаРасположение каналов : Front: L RЧастота : 48,0 КГцМетод сжатия : С потерямиРазмер потока : 79,8 Мбайт (4%)Язык : RussianДата кодирования : UTC 2013-02-03 19:35:02Дата пометки : UTC 2013-02-03 19:35:33

Аудио #2Идентификатор : 3Формат : AACФормат/Информация : Advanced Audio CodecПрофиль формата : LCИдентификатор кодека : 40Продолжительность : 1 ч. 32 м.Вид битрейта : ПеременныйБитрейт : 129 Кбит/секМаксимальный битрейт : 191 Кбит/секКаналы : 2 каналаРасположение каналов : Front: L RЧастота : 48,0 КГцМетод сжатия : С потерямиРазмер потока : 85,2 Мбайт (4%)Язык : FrenchДата кодирования : UTC 2013-02-03 19:35:25Дата пометки : UTC 2013-02-03 19:35:33

Текст #1Идентификатор : 4Формат : Timed textРежим смешивания : sbtlИдентификатор кодека : tx3gПродолжительность : 1 ч. 32 м.Вид битрейта : ПеременныйБитрейт : 120 бит/секРазмер потока : 80,9 Кбайт (0%)Язык : RussianДата кодирования : UTC 2013-02-03 19:35:32Дата пометки : UTC 2013-02-03 19:35:33

Текст #2Идентификатор : 5Формат : Timed textРежим смешивания : sbtlИдентификатор кодека : tx3gПродолжительность : 1 ч. 32 м.Вид битрейта : ПеременныйБитрейт : 85 бит/секРазмер потока : 57,6 Кбайт (0%)Язык : EnglishДата кодирования : UTC 2013-02-03 19:35:32Дата пометки : UTC 2013-02-03 19:35:33

Текст #3Идентификатор : 7Формат : Apple textИдентификатор кодека : textПродолжительность : 1 ч. 32 м.Вид битрейта : ПеременныйБитрейт : 1 бит/секРазмер потока : 471 байт (0%)Дата кодирования : UTC 2013-02-03 20:11:09Дата пометки : UTC 2013-02-03 20:11:09
x264 [info]: frame I:1352 Avg QP:15.45 size:130452 PSNR Mean Y:47.52 U:52.12 V:52.16 Avg:48.50 Global:48.08x264 [info]: frame P:33100 Avg QP:18.57 size: 38717 PSNR Mean Y:44.32 U:51.28 V:51.17 Avg:45.50 Global:44.66x264 [info]: frame B:98629 Avg QP:22.59 size: 6318 PSNR Mean Y:42.61 U:50.56 V:50.45 Avg:43.95 Global:42.76x264 [info]: consecutive B-frames: 3.5% 4.1% 5.3% 46.4% 10.1% 25.8% 4.9%x264 [info]: mb I I16..4: 6.6% 58.1% 35.3%x264 [info]: mb P I16..4: 1.2% 5.3% 1.5% P16..4: 36.5% 26.5% 19.5% 0.0% 0.0% skip: 9.5%x264 [info]: mb B I16..4: 0.1% 0.5% 0.2% B16..8: 38.8% 7.1% 2.2% direct: 4.5% skip:46.6% L0:39.8% L1:45.6% BI:14.6%x264 [info]: 8x8 transform intra:64.2% inter:60.4%x264 [info]: coded y,uvDC,uvAC intra: 81.9% 69.8% 40.9% inter: 24.1% 15.5% 1.4%x264 [info]: i16 v,h,dc,p: 39% 22% 9% 30%x264 [info]: i8 v,h,dc,ddl,ddr,vr,hd,vl,hu: 10% 8% 6% 10% 14% 14% 14% 12% 12%x264 [info]: i4 v,h,dc,ddl,ddr,vr,hd,vl,hu: 10% 9% 4% 9% 15% 14% 14% 11% 14%x264 [info]: i8c dc,h,v,p: 43% 26% 19% 12%x264 [info]: Weighted P-Frames: Y:4.9% UV:2.5%x264 [info]: ref P L0: 55.0% 13.2% 13.8% 5.7% 3.9% 3.0% 2.3% 1.4% 1.3% 0.2% 0.0%x264 [info]: ref B L0: 81.0% 9.3% 4.5% 1.9% 1.4% 1.0% 0.6% 0.2%x264 [info]: ref B L1: 93.1% 6.9%x264 [info]: SSIM Mean Y:0.9832815 (17.768db)x264 [info]: PSNR Mean Y:43.087 U:50.752 V:50.647 Avg:44.380 Global:43.191 kb/s:2999.38


Трекер:  [ 04-Фев-2013 16:37 ]

  

Скачать .torrent

Размер .torrent файла 11 KB


Размер: 2.11 GB
Хэш (hash) релиза: bce948425b39ae5fcbb359b816183e91a3261cf2

Еще никто не оставлял запись к записи скачать торрент [iPad] Париж: Путешествие во времени Paris, The Great Saga . Будь первым!

!Обратная связь