Скачать через торрент [iPad] Экипaж Fliight бесплатно русская версия torrent активатор

Если у вас наблюдаются проблемы со скриншотами, переходом по ссылками, скачиванием торрентов - проблемы в блокировщике рекламы AdBlock. #хорошегоДня!


Статистика раздачи
Размер:  2.38 GB   |    Зарегистрирован:  4 года 8 месяцев   |    .torrent скачан:  118 раз   |   
Раздают:  1  
   
Загрузка...
 
Автор Сообщение

Galfimbul

avatar Galfimbul


Экипaж / Fliight

Год выпуска: 2012
Страна: США
Студия: ImageMovers
Жанр: Драма
Продолжительность: 02:18:35
Рейтинг MPAA: R
Перевод: Профессиональный (дублированный) Чистый звук
Оригинальная аудиодорожка: есть
Cубтитры: русские и английские

Режиссёр: Poбepт Зeмeкиc/ Rоbеrt Zеmесkis
Сценарий: Джoн Гэйтинc
Продюссер: Лори МакДональд, Уолтер Ф. Паркс, Джек Рэпк

В ролях: Дензел Вашингтон, Келли Райлли, Брюс Гринвуд, Дон Чидл, Джон Гудмен, Тамара Тюни, Брайан Джерати, Мелисса Лео, Надин Веласкес, Майкл Бисли, Гарсель Бове, Рави Капур

Описание:
Опытный пилот Уип Вайтекер чудом избегает крушения самолета, и, совершив аварийную посадку, сохраняет жизни практически всех пассажиров. Уипа чествуют, как героя, но чем больше появляется подробностей о катастрофе, тем больше вопросов возникает: что же на самом деле произошло на борту самолёта…

Доп. информация:


Качество исходника: BDRemux - Экипаж / Flight / 2012 / ДБ, ЛО, СТ / Blu-Ray Remux (1080p)
Качество: BDRip
Разрешение: 1024х432
Формат: MP4
Видео: H.264, 2,40:1 , 2200kbit/s; 23.976fps

Аудио 1: Russian/Dub, AAC, 125kbit/s; 2ch; 48KHz
Аудио 2: English/Original, AAC, 125kbit/s; 2ch; 48KHz
XID: Apple:vendor_id:2012-592203contentID: 583674826Screenwriters: Джон ГэйтинсProducers: Лори МакДональд, Уолтер Ф. Паркс, Джек РэпкDirector: Роберт ЗемекисCast: Дензел Вашингтон, Келли Райлли, Брюс Гринвуд, Дон Чидл, Джон Гудмен, Тамара Тюни, Брайан Джерати, Мелисса Лео, Надин Веласкес, Майкл Бисли, Гарсель Бове, Рави КапурRating: 5Long Description: Опытный пилот Уип Вайтекер чудом избегает крушения самолета, и, совершив аварийную посадку, сохраняет жизни практически всех пассажиров. Уипа чествуют, как героя, но чем больше появляется подробностей о катастрофе, тем больше вопросов возникает: что же на самом деле произошло на борту самолёта…Description: Опытный пилот Уип Вайтекер чудом избегает крушения самолета, и, совершив аварийную посадку, сохраняет жизни практически всех пассажиров.Release Date: 2012-10-14T15:00:00ZGenre: DramaArtist: Роберт ЗемекисName: Экипаж
GeneralComplete name : /Users/imac/HandBrake/Ekipazh.2012.x264.BDRip.1024x.m4vFormat : MPEG-4Codec ID : M4VFile size : 2.38 GiBDuration : 2h 18mnOverall bit rate mode : VariableOverall bit rate : 2 458 KbpsMovie name : ЭкипажPerformer : Роберт ЗемекисGenre : DramaRecorded date : UTC 2012-10-14 15:00:00Encoded date : UTC 2013-02-03 09:15:40Tagged date : UTC 2013-02-03 09:18:37Cover : Yesdesc : Опытный пилот Уип Вайтекер чудом избегает крушения самолета, и, совершив аварийную посадку, сохраняет жизни практически всех пассажиров.ldes : Опытный пилот Уип Вайтекер чудом избегает крушения самолета, и, совершив аварийную посадку, сохраняет жизни практически всех пассажиров. Уипа чествуют, как героя, но чем больше появляется подробностей о катастрофе, тем больше вопросов возникает: что же на самом деле произошло на борту самолёта…stik : 9rtng : 0cnID : 583674826xid : Apple:vendor_id:2012-592203iTunEXTC : mpaa|R|400|iTunMOVI : <?xml version="1.0" encoding="UTF-8"?> / <!DOCTYPE plist PUBLIC "-//Apple//DTD PLIST 1.0//EN" "http://www.apple.com/DTDs/PropertyList-1.0.dtd"> / <plist version="1.0"> / <dict> / <key>cast</key> / <array> / <dict> / <key>name</key> / <string> Дензел Вашингтон</string> / </dict> / <dict> / <key>name</key> / <string>Келли Райлли</string> / </dict> / <dict> / <key>name</key> / <string>Брюс Гринвуд</string> / </dict> / <dict> / <key>name</key> / <string>Дон Чидл</string> / </dict> / <dict> / <key>name</key> / <string>Джон Гудмен</string> / </dict> / <dict> / <key>name</key> / <string>Тамара Тюни</string> / </dict> / <dict> / <key>name</key> / <string>Брайан Джерати</string> / </dict> / <dict> / <key>name</key> / <string>Мелисса Лео</string> / </dict> / <dict> / <key>name</key> / <string>Надин Веласкес</string> / </dict> / <dict> / <key>name</key> / <string>Майкл Бисли</string> / </dict> / <dict> / <key>name</key> / <string>Гарсель Бове</string> / </dict> / <dict> / <key>name</key> / <string>Рави Капур</string> / </dict> / </array> / <key>directors</key> / <array> / <dict> / <key>name</key> / <string>Роберт Земекис</string> / </dict> / </array> / <key>producers</key> / <array> / <dict> / <key>name</key> / <string>Лори МакДональд</string> / </dict> / <dict> / <key>name</key> / <string>Уолтер Ф. Паркс</string> / </dict> / <dict> / <key>name</key> / <string>Джек Рэпк</string> / </dict> / </array> / <key>screenwriters</key> / <array> / <dict> / <key>name</key> / <string>Джон Гэйтинс</string> / </dict> / </array> / </dict> / </plist>

Video #1ID : 1Format : AVCFormat/Info : Advanced Video CodecFormat profile : <a href="mailto:High@L3.1Format" class="postLink">High@L3.1Format</a> settings, CABAC : YesFormat settings, ReFrames : 9 framesCodec ID : avc1Codec ID/Info : Advanced Video CodingDuration : 2h 18mnBit rate mode : VariableBit rate : 2 200 KbpsWidth : 1 024 pixelsHeight : 432 pixelsDisplay aspect ratio : 2.40:1Frame rate mode : VariableFrame rate : 23.976 fpsMinimum frame rate : 23.810 fpsMaximum frame rate : 24.272 fpsColor space : YUVChroma subsampling : 4:2:0Bit depth : 8 bitsScan type : ProgressiveBits/(Pixel*Frame) : 0.207Stream size : 2.13 GiB (89%)Writing library : x264 core 120Encoding settings : cabac=1 / ref=9 / deblock=1:0:0 / analyse=0x3:0x113 / me=umh / subme=9 / psy=1 / psy_rd=1.00:0.00 / mixed_ref=1 / me_range=32 / chroma_me=1 / trellis=1 / 8x8dct=1 / cqm=0 / deadzone=21,11 / fast_pskip=1 / chroma_qp_offset=-2 / threads=12 / sliced_threads=0 / nr=0 / decimate=1 / interlaced=0 / bluray_compat=0 / constrained_intra=0 / bframes=6 / b_pyramid=2 / b_adapt=2 / b_bias=0 / direct=1 / weightb=1 / open_gop=0 / weightp=2 / keyint=240 / keyint_min=24 / scenecut=40 / intra_refresh=0 / rc_lookahead=40 / rc=2pass / mbtree=1 / bitrate=2200 / ratetol=1.0 / qcomp=0.60 / qpmin=3 / qpmax=69 / qpstep=4 / cplxblur=20.0 / qblur=0.5 / ip_ratio=1.40 / aq=1:1.00Language : EnglishEncoded date : UTC 2013-02-03 09:15:41Tagged date : UTC 2013-02-03 09:18:16Color primaries : BT.709-5, BT.1361, IEC 61966-2-4, SMPTE RP177Transfer characteristics : BT.709-5, BT.1361Matrix coefficients : BT.709-5, BT.1361, IEC 61966-2-4 709, SMPTE RP177

Video #2ID : 7Format : JPEGCodec ID : jpegDuration : 2h 18mnBit rate mode : VariableBit rate : 486 bpsWidth : 640 pixelsHeight : 270 pixelsDisplay aspect ratio : 2.40:1Frame rate mode : VariableFrame rate : 0.002 fpsMinimum frame rate : 0.001 fpsMaximum frame rate : 0.003 fpsColor space : YUVChroma subsampling : 4:2:0Bit depth : 8 bitsCompression mode : LossyBits/(Pixel*Frame) : 1.406Stream size : 445 KiB (0%)Language : EnglishEncoded date : UTC 2013-02-03 09:18:37Tagged date : UTC 2013-02-03 09:18:37

Audio #1ID : 2Format : AACFormat/Info : Advanced Audio CodecFormat profile : LCCodec ID : 40Duration : 2h 18mnBit rate mode : VariableBit rate : 125 KbpsMaximum bit rate : 190 KbpsChannel(s) : 2 channelsChannel positions : Front: L RSampling rate : 48.0 KHzCompression mode : LossyStream size : 124 MiB (5%)Language : RussianEncoded date : UTC 2013-02-03 09:15:41Tagged date : UTC 2013-02-03 09:18:23

Audio #2ID : 3Format : AACFormat/Info : Advanced Audio CodecFormat profile : LCCodec ID : 40Duration : 2h 18mnBit rate mode : VariableBit rate : 125 KbpsMaximum bit rate : 184 KbpsChannel(s) : 2 channelsChannel positions : Front: L RSampling rate : 48.0 KHzCompression mode : LossyStream size : 124 MiB (5%)Language : EnglishEncoded date : UTC 2013-02-03 09:15:41Tagged date : UTC 2013-02-03 09:18:30

Text #1ID : 4Format : Timed textMuxing mode : sbtlCodec ID : tx3gDuration : 2h 11mnBit rate mode : VariableBit rate : 117 bpsStream size : 113 KiB (0%)Language : RussianEncoded date : UTC 2013-02-03 09:15:41Tagged date : UTC 2013-02-03 09:18:30

Text #2ID : 5Format : Timed textMuxing mode : sbtlCodec ID : tx3gDuration : 2h 11mnBit rate mode : VariableBit rate : 83 bpsStream size : 80.2 KiB (0%)Language : EnglishEncoded date : UTC 2013-02-03 09:15:41Tagged date : UTC 2013-02-03 09:18:30

Text #3ID : 6Format : Apple textCodec ID : textDuration : 2h 18mnBit rate mode : ConstantBit rate : 0 bpsStream size : 360 Bytes (0%)Language : EnglishEncoded date : UTC 2013-02-03 09:18:30Tagged date : UTC 2013-02-03 09:18:30

Menu00:00:00.000 : Chapter 100:09:32.655 : Chapter 200:17:07.067 : Chapter 300:26:16.866 : Chapter 400:34:40.285 : Chapter 500:45:42.696 : Chapter 600:52:01.574 : Chapter 701:00:46.848 : Chapter 801:10:10.160 : Chapter 901:19:30.887 : Chapter 1001:26:54.622 : Chapter 1101:37:05.315 : Chapter 1201:48:54.231 : Chapter 1301:55:20.199 : Chapter 1402:11:54.817 : Chapter 15
x264 [info]: frame I:1328 Avg QP:10.19 size: 87031 PSNR Mean Y:52.33 U:53.84 V:54.73 Avg:52.83 Global:52.32x264 [info]: frame P:48187 Avg QP:12.65 size: 26966 PSNR Mean Y:51.34 U:52.46 V:53.37 Avg:51.67 Global:50.37x264 [info]: frame B:149854 Avg QP:15.65 size: 5815 PSNR Mean Y:48.78 U:50.73 V:51.96 Avg:49.43 Global:49.08x264 [info]: consecutive B-frames: 2.7% 2.2% 10.2% 37.0% 16.3% 26.3% 5.4%x264 [info]: mb I I16..4: 9.4% 65.7% 24.9%x264 [info]: mb P I16..4: 1.0% 6.9% 1.8% P16..4: 30.8% 27.4% 21.8% 0.0% 0.0% skip:10.2%x264 [info]: mb B I16..4: 0.1% 0.6% 0.2% B16..8: 34.7% 12.5% 3.6% direct: 3.9% skip:44.4% L0:43.7% L1:42.8% BI:13.5%x264 [info]: 8x8 transform intra:69.1% inter:66.1%x264 [info]: coded y,uvDC,uvAC intra: 88.5% 89.1% 75.8% inter: 25.7% 23.2% 10.1%x264 [info]: i16 v,h,dc,p: 30% 10% 7% 52%x264 [info]: i8 v,h,dc,ddl,ddr,vr,hd,vl,hu: 14% 11% 9% 8% 11% 12% 12% 11% 12%x264 [info]: i4 v,h,dc,ddl,ddr,vr,hd,vl,hu: 11% 9% 4% 9% 15% 14% 14% 11% 12%x264 [info]: i8c dc,h,v,p: 48% 21% 18% 13%x264 [info]: Weighted P-Frames: Y:2.2% UV:0.8%x264 [info]: ref P L0: 49.3% 7.5% 16.5% 7.5% 5.8% 4.7% 3.7% 2.4% 2.2% 0.4% 0.0%x264 [info]: ref B L0: 69.5% 13.8% 6.9% 3.3% 2.8% 2.1% 1.2% 0.4%x264 [info]: ref B L1: 90.1% 9.9%x264 [info]: SSIM Mean Y:0.9929160 (21.497db)x264 [info]: PSNR Mean Y:49.422 U:51.168 V:52.318 Avg:49.998 Global:49.373 kb/s:2199.69


Трекер:  [ 03-Фев-2013 18:14 ]

  

Скачать .torrent

Размер .torrent файла 24 KB


Размер: 2.38 GB
Хэш (hash) релиза: cf25fdbdc599792da0a8566cb5060a0082f173b8

Еще никто не оставлял запись к записи скачать торрент [iPad] Экипaж Fliight . Будь первым!

!Обратная связь