Скачать через торрент музыку David Byron & The Byron Band - One Minute More - 2008, FLAC бесплатно без регистрации torrent

Если у вас наблюдаются проблемы со скриншотами, переходом по ссылками, скачиванием торрентов - проблемы в блокировщике рекламы AdBlock. #хорошегоДня!


Статистика раздачи
Размер:  546 MB   |    Зарегистрирован:  4 года 9 месяцев   |    .torrent скачан:  113 раз   |   
Раздают:  1  
   
Загрузка...
 
Автор Сообщение

Galfimbul

avatar Galfimbul


David Byron & The Byron Band / One Minute More

Жанр: Rock & Hard Rock
Страна-производитель диска: UK
Год издания: 2008
Издатель (лейбл): Damage Control Music Inc
Страна: UK
Аудиокодек: FLAC (*.flac)
Тип рипа: image+.cue
Битрейт аудио: lossless
Продолжительность: 1:21:33
Источник (релизер): Сеть
Наличие сканов в содержимом раздачи: да
Треклист:
01. Bad Girl (Byron / George)
02. Fool For A Pretty Face (Byron / George)
03. I Need Love (Byron / George)
04. I Still Wanna' Hold You (Byron / Boone / George)
05. It Gets A Little Crazy (Byron / Boone / George)
06. One Minute More (Byron / George)
07. Safety In Numbers (Byron / George)
08. Learn The Dance (Byron / Boone)
09. What's Your Game (Byron / Boone / George)
10. Rebecca (Byron / George)
11. Interview 1
12. Bad Girl (Byron / George)
13. Interview 2
14. Start Believing (Byron / George)
15. Interview 3
16. Never Say Die (Byron / George)
17. Interview 4
18. Little By Little (Byron / George)
19. Interview 5
20. Piece Of My Love (Byron / George)
21. Angelsong (George)
Exact Audio Copy V1.0 beta 3 from 29. August 2011

Отчёт EAC об извлечении, выполненном 3. февраля 2013, 1:04

DAVID BYRON & THE BYRON BAND / ONE MINUTE MORE

Дисковод: PIONEER DVD-RW DVR-219L Adapter: 3 ID: 1

Режим чтения : ДостоверностьИспользование точного потока : ДаОтключение кэша аудио : ДаИспользование указателей C2 : Нет

Коррекция смещения при чтении : 6Способность читать области Lead-in и Lead-out : НетЗаполнение пропущенных сэмплов тишиной : ДаУдаление блоков с тишиной в начале и конце : НетПри вычислениях CRC использовались нулевые сэмплы : ДаИнтерфейс : Встроенный Win32-интерфейс для Win NT/2000

Выходной формат : Пользовательский кодировщикВыбранный битрейт : 768 kBit/sКачество : ВысокийДобавление ID3-тега : НетУтилита сжатия : C:\Program Files\Exact Audio Copy\FLAC\FLAC.EXEДополнительные параметры : -6 -V -T "ARTIST=%artist%" -T "TITLE=%title%" -T "ALBUM=%albumtitle%" -T "DATE=%year%" -T "TRACKNUMBER=%tracknr%" -T "GENRE=%genre%" -T "COMMENT=%comment%" -T "BAND=%albuminterpret%" -T "ALBUMARTIST=%albuminterpret%" -T "COMPOSER=%composer%" %haslyrics%--tag-from-file=LYRICS="%lyricsfile%"%haslyrics% -T "DISCNUMBER=%cdnumber%" -T "TOTALDISCS=%totalcds%" -T "TOTALTRACKS=%numtracks%" %hascover%--picture="%coverfile%"%hascover% %source% -o %dest%

TOC извлечённого CD

Трек | Старт | Длительность | Начальный сектор | Конечный сектор --------------------------------------------------------------------- 1 | 0:00.00 | 5:07.36 | 0 | 23060 2 | 5:07.36 | 3:02.22 | 23061 | 36732 3 | 8:09.58 | 4:24.65 | 36733 | 56597 4 | 12:34.48 | 5:59.74 | 56598 | 83596 5 | 18:34.47 | 4:15.38 | 83597 | 102759 6 | 22:50.10 | 3:18.38 | 102760 | 117647 7 | 26:08.48 | 4:14.28 | 117648 | 136725 8 | 30:23.01 | 3:51.65 | 136726 | 154115 9 | 34:14.66 | 3:31.10 | 154116 | 169950 10 | 37:46.01 | 3:56.66 | 169951 | 187716 11 | 41:42.67 | 5:10.46 | 187717 | 211012 12 | 46:53.38 | 4:05.53 | 211013 | 229440 13 | 50:59.16 | 2:23.09 | 229441 | 240174 14 | 53:22.25 | 3:18.45 | 240175 | 255069 15 | 56:40.70 | 2:37.59 | 255070 | 266903 16 | 59:18.54 | 3:47.26 | 266904 | 283954 17 | 63:06.05 | 1:34.01 | 283955 | 291005 18 | 64:40.06 | 2:32.27 | 291006 | 302432 19 | 67:12.33 | 3:42.35 | 302433 | 319117 20 | 70:54.68 | 5:13.49 | 319118 | 342641 21 | 76:08.42 | 5:24.42 | 342642 | 366983

Характеристики диапазона извлечения и сообщения об ошибках

Выбранный диапазон

Имя файла E:\My Torrent\байрон 2008\DAVID BYRON & THE BYRON BAND - ONE MINUTE MORE.wav

Пиковый уровень 100.0 % Скорость извлечения 3.4 X Качество диапазона 100.0 % CRC теста FA52E55D CRC копии FA52E55D Копирование... OK

Ошибок не произошло
AccurateRip: сводка

Трек 1 отсутствует в базе данныхТрек 2 отсутствует в базе данныхТрек 3 отсутствует в базе данныхТрек 4 отсутствует в базе данныхТрек 5 отсутствует в базе данныхТрек 6 отсутствует в базе данныхТрек 7 отсутствует в базе данныхТрек 8 отсутствует в базе данныхТрек 9 отсутствует в базе данныхТрек 10 отсутствует в базе данныхТрек 11 отсутствует в базе данныхТрек 12 отсутствует в базе данныхТрек 13 отсутствует в базе данныхТрек 14 отсутствует в базе данныхТрек 15 отсутствует в базе данныхТрек 16 отсутствует в базе данныхТрек 17 отсутствует в базе данныхТрек 18 отсутствует в базе данныхТрек 19 отсутствует в базе данныхТрек 20 отсутствует в базе данныхТрек 21 отсутствует в базе данных

Ни одного трека нет в базе AccurateRip

Конец отчёта

==== Контрольная сумма отчёта A1EF5AFD63E7BE22BE83A33F6D6AA8E2FA65EAAFE812E14E220D17863EAB41E5 ====
Доп. информация: Рип мой из записанного CD-R, образ найден в сети
Это еще одна компиляция архивных записей группы The Byron Band, выполненных в период с 1980 по 1982 год и выпущенная в 2008 году на лейбле Damage Control Music. Большая часть материала уже выходила в свет на альбоме «On The Rocks» и на двойном CD «Lost And Found» (2003). Только три песни — «I Still Wanna’ Hold You», «It Gets A Little Crazy» и «What’s Your Game» — ранее не издавались. Кроме того, на альбоме «One Minute More» имеется пять интервью Дэвида Байрона и Робина Джорджа (треки 11, 13, 15, 17 и 19).
Original album credits:
David Byron: Lead Vocals
Robin George: Guitars and Background Vocals
Roger Flavelle & Pino Palladino: Bass Guitar
Steve Braye, Pete Thompson, Charlie Morgan
& John Searer: Drums
Bob Jackson & Pete Green: Keyboards
Mel Collins: Saxophone
Daniel Boone, Chris Thompson: Backing Vocals

Band bits produced by Gus Dudgeon on "Angelsong"
Mastered by: Robin George 2002
Cover Design: Adam Charlesworth
Paintings by: Debra Derryn
Liner Notes: Fiona Bond

©2008 Damage Control Music


Трекер:  [ 03-Фев-2013 18:09 ]

  

Скачать .torrent

Размер .torrent файла 11 KB


Размер: 546 MB
Хэш (hash) релиза: 0ef08f677c3c4b4307ece18f72e2914bf7b0572d

Еще никто не оставлял запись к записи скачать торрент David Byron & The Byron Band - One Minute More - 2008, FLAC . Будь первым!

!Обратная связь