Скачать через торрент Орсон Скотт Кард - Тень Эндера бесплатно русская версия torrent активатор

Если у вас наблюдаются проблемы со скриншотами, переходом по ссылками, скачиванием торрентов - проблемы в блокировщике рекламы AdBlock. #хорошегоДня!


Статистика раздачи
Размер:  572 MB   |    Зарегистрирован:  4 года 8 месяцев   |    .torrent скачан:  127 раз   |   
Раздают:  1  
   
Загрузка...
 
Автор Сообщение

Galfimbul

avatar Galfimbul


Орсон Скотт Кард - Тень Эндера [Людмила Солоха (ЛИ), 2009, Фантастика, 64 kbps]

Год выпуска: 2009
Язык: Русский
Автор: Орсон Скотт Кард
Исполнитель: Людмила Солоха (ЛИ)
Жанр: Фантастика
Издательство: Клуб любителей аудиокниг
Тип аудиокниги: аудиокнига
Аудио кодек: AAC
Формат: .m4b
Битрейт: 64 kbps
Частота оцифровки: 32000 Гц
Программа-риповщик: Audiobook Builder 1.5.3, QuickTime 7.7.1
Общая продолжительность: 20:41:07

Описание:
Это — не продолжение приключений Эндрю Виггина, величайшего полководца космической эры.
Это — нечто куда более интересное.
Перед вами — «роман-параллакс». История «Игры Эндера», пересказанная заново. История «тени Эндера» — мальчишки со смешным прозвищем Боб, плечом к плечу с Эндрю Виггином прошедшего и адову школу «специальной программы», готовящей из детей командный состав земных космических армад, и боевое крещение решающей битвы с жестокими негуманоидными пришельцами.
Предназначением Эндера было — побеждать.
Каково же предназначение того, кто шел к победе с ним рядом?..
Вшитая обложка: есть
Разбитие на главы: есть
GeneralComplete name : S:\Кард Орсон Скотт - Тень Эндера\Кард Орсон Скотт (2009) - Тень Эндера, Часть 1.m4bFormat : MPEG-4Format profile : Base Media / Version 2Codec ID : mp42File size : 321 MiBDuration : 11h 36mnOverall bit rate mode : VariableOverall bit rate : 64.4 KbpsMovie name : Тень Эндера (часть 1)Album : Тень ЭндераAlbum/Performer : Орсон Скотт КардPart/Position : 1Part/Total : 1Track name/Position : 1Track name/Total : 2Performer : Орсон Скотт КардGenre : ФантастикаRecorded date : 2009Encoded date : UTC 2012-10-25 17:44:19Tagged date : UTC 2013-02-03 12:53:47Writing application : Audiobook Builder 1.5.3 (www.splasm.com), QuickTime 7.7.1Copyright : Клуб Любителей АудиокнигCover : YesComment : Исполнитель: Людмила Солоха (Клуб Любителей Аудиокниг)stik : 2

VideoID : 2Format : PNGFormat/Info : Portable Network GraphicCodec ID : pngDuration : 11h 36mnBit rate : 73 bpsWidth : 450 pixelsHeight : 450 pixelsDisplay aspect ratio : 1.000Frame rate mode : ConstantFrame rate : 0.000 fpsCompression mode : LosslessStream size : 370 KiB (0%)Title : Ћбработчик видео Apple / Ћбработчик псевдонимов AppleLanguage : EnglishEncoded date : UTC 2012-10-25 17:45:04Tagged date : UTC 2012-10-25 17:45:04

AudioID : 1Format : AACFormat/Info : Advanced Audio CodecFormat profile : LCCodec ID : 40Duration : 11h 36mnSource duration : 11h 36mnBit rate mode : ConstantBit rate : 64.0 KbpsChannel(s) : 1 channelChannel positions : Front: CSampling rate : 32.0 KHzCompression mode : LossyStream size : 313 MiB (98%)Source stream size : 313 MiB (98%)Title : Ћбработчик звука AppleLanguage : EnglishEncoded date : UTC 2012-10-25 17:44:06Tagged date : UTC 2013-02-03 12:53:47

TextID : 3Format : Apple textCodec ID : textDuration : 11h 36mnBit rate mode : VariableBit rate : 0 bpsStream size : 698 Bytes (0%)Title : Ћбработчик текста Apple / Ћбработчик псевдонимов AppleLanguage : EnglishEncoded date : UTC 2012-10-25 17:45:04Tagged date : UTC 2012-10-25 17:45:04
GeneralComplete name : S:\Кард Орсон Скотт - Тень Эндера\Кард Орсон Скотт (2009) - Тень Эндера, Часть 2.m4bFormat : MPEG-4Format profile : Base Media / Version 2Codec ID : mp42File size : 251 MiBDuration : 9h 4mnOverall bit rate mode : VariableOverall bit rate : 64.4 KbpsMovie name : Тень Эндера (часть 2)Album : Тень ЭндераAlbum/Performer : Орсон Скотт КардPart/Position : 1Part/Total : 1Track name/Position : 2Track name/Total : 2Performer : Орсон Скотт КардGenre : ФантастикаRecorded date : 2009Encoded date : UTC 2012-10-25 17:48:54Tagged date : UTC 2013-02-03 12:53:46Writing application : Audiobook Builder 1.5.3 (www.splasm.com), QuickTime 7.7.1Copyright : Клуб Любителей АудиокнигCover : YesComment : Исполнитель: Людмила Солоха (Клуб Любителей Аудиокниг)stik : 2

VideoID : 2Format : PNGFormat/Info : Portable Network GraphicCodec ID : pngDuration : 9h 4mnBit rate : 93 bpsWidth : 450 pixelsHeight : 450 pixelsDisplay aspect ratio : 1.000Frame rate mode : ConstantFrame rate : 0.000 fpsCompression mode : LosslessStream size : 370 KiB (0%)Title : Ћбработчик видео Apple / Ћбработчик псевдонимов AppleLanguage : EnglishEncoded date : UTC 2012-10-25 17:49:28Tagged date : UTC 2012-10-25 17:49:28

AudioID : 1Format : AACFormat/Info : Advanced Audio CodecFormat profile : LCCodec ID : 40Duration : 9h 4mnSource duration : 9h 4mnBit rate mode : ConstantBit rate : 64.0 KbpsChannel(s) : 1 channelChannel positions : Front: CSampling rate : 32.0 KHzCompression mode : LossyStream size : 244 MiB (97%)Source stream size : 244 MiB (97%)Title : Ћбработчик звука AppleLanguage : EnglishEncoded date : UTC 2012-10-25 17:48:46Tagged date : UTC 2013-02-03 12:53:46

TextID : 3Format : Apple textCodec ID : textDuration : 9h 4mnBit rate mode : VariableBit rate : 0 bpsStream size : 486 Bytes (0%)Title : Ћбработчик текста Apple / Ћбработчик псевдонимов AppleLanguage : EnglishEncoded date : UTC 2012-10-25 17:49:28Tagged date : UTC 2012-10-25 17:49:28


Трекер:  [ 03-Фев-2013 17:19 ]

  

Скачать .torrent

Размер .torrent файла 12 KB


Размер: 572 MB
Хэш (hash) релиза: 967fc8355558254409362d2d9ad9378b7cdce83a

Еще никто не оставлял запись к записи скачать торрент Орсон Скотт Кард - Тень Эндера . Будь первым!

!Обратная связь