Скачать через торрент Опeрация «Aрго» Аrgo бесплатно русская версия torrent активатор

Если у вас наблюдаются проблемы со скриншотами, переходом по ссылками, скачиванием торрентов - проблемы в блокировщике рекламы AdBlock. #хорошегоДня!


Статистика раздачи
Размер:  17.98 GB   |    Зарегистрирован:  4 года 8 месяцев   |    .torrent скачан:  51 раз   |   
Раздают:  1  
   
Загрузка...
 
Автор Сообщение

Galfimbul

avatar Galfimbul


Операция «Арго» / Argo

Год выпуска: 2012
Страна: США
Жанр: триллер, драма, история
Продолжительность: 02:00:23
Перевод: Дубляж
Субтитры: Английские
Навигация: по главам (с изображениями)

Режиссер: Бен Аффлек

В ролях: Бен Аффлек, Брайан Крэнстон, Алан Аркин, Джон Гудмен, Виктор Гарбер, Тейт Донован, Клеа Дюваль, Скут МакНэйри, Рори Кокрейн, Кристофер Денхам

Описание: 4 ноября 1979 г. революция в Иране достигает своего апогея, исламисты штурмуют посольство США в Тегеране и берут в заложники 52 американца. Но в этом хаосе шестерым удается ускользнуть и найти прибежище в доме канадского посла. Понимая, что их обнаружение и, вероятнее всего, убийство - всего лишь вопрос времени, Тони Мендес, специалист ЦРУ по тайному вывозу людей из страны, предлагает рискованный план безопасной эвакуации. План столь невероятен, что такое бывает только в кино.

Формат: MP4 (контейнер m4v)
Исходник: BD-Remux
Качество: BDRip

Видео:
Full HD: H.264, 1920x800 px (2,40:1), 13000 kbps, 23.976 fps
HD: H.264, 1280x532 px (2,40:1), 6000 kbps, 23.976 fps
Аудио №1: Русский, AAC LC, 2 канала, 48 кГц, VBR 160 kbps
Аудио №2: Английский, AAC LC, 2 канала, 48 кГц, VBR 160 kbps
Аудио №3: Русский, AC-3, 6 каналов, 48 кГц, 384 kbps
Аудио №4: Английский, AC-3, 6 каналов, 48 кГц, 448 kbps

8.066 / 10
Общее
Полное имя : /Volumes/G-RAID with Thunderbolt/ARGO 1080.m4v
Формат : MPEG-4
Профиль формата : Base Media / Version 2
Идентификатор кодека : mp42
Размер файла : 12,0 Гбайт
Продолжительность : 2 ч. 0 м.
Режим общего битрейта : Переменный
Общий поток : 14,2 Мбит/сек
Название фильма : Argo
Исполнитель : Ben Affleck
Жанр : Drama
Дата записи : UTC 2012-11-08 07:00:00
Дата кодирования : UTC 2013-02-02 16:07:13
Дата пометки : UTC 2013-02-03 08:44:06
Правообладатель : © 2012 Warner Bros. Entertainment Inc.
Обложка : Yes
desc : 4 ноября 1979 г. революция в Иране достигает своего апогея, исламисты штурмуют посольство США в Тегеране и берут в заложники 52 американца.
ldes : 4 ноября 1979 г. революция в Иране достигает своего апогея, исламисты штурмуют посольство США в Тегеране и берут в заложники 52 американца. Но в этом хаосе шестерым удается ускользнуть и найти прибежище в доме канадского посла. Понимая, что их обнаружение и, вероятнее всего, убийство - всего лишь вопрос времени, Тони Мендес, специалист ЦРУ по тайному вывозу людей из страны, предлагает рискованный план безопасной эвакуации. План столь невероятен, что такое бывает только в кино.
hdvd : 2
stik : 9
rtng : 0
cnID : 589625320
xid : Apple:vendor_id:2012-462487
iTunEXTC : mpaa|R|400|
iTunMOVI : <?xml version="1.0" encoding="UTF-8"?> / <!DOCTYPE plist PUBLIC "-//Apple//DTD PLIST 1.0//EN" "http://www.apple.com/DTDs/PropertyList-1.0.dtd"> / <plist version="1.0"> / <dict> / <key>cast</key> / <array> / <dict> / <key>name</key> / <string>Бен Аффлек</string> / </dict> / <dict> / <key>name</key> / <string>Брайан Крэнстон</string> / </dict> / <dict> / <key>name</key> / <string>Алан Аркин</string> / </dict> / <dict> / <key>name</key> / <string>Джон Гудмен</string> / </dict> / <dict> / <key>name</key> / <string>Виктор Гарбер</string> / </dict> / <dict> / <key>name</key> / <string>Тейт Донован</string> / </dict> / <dict> / <key>name</key> / <string>Клеа Дюваль</string> / </dict> / <dict> / <key>name</key> / <string>Скут МакНэйри</string> / </dict> / <dict> / <key>name</key> / <string>Рори Кокрейн</string> / </dict> / <dict> / <key>name</key> / <string>Кристофер Денхам</string> / </dict> / </array> / <key>directors</key> / <array> / <dict> / <key>name</key> / <string>Бен Аффлек</string> / </dict> / </array> / <key>producers</key> / <array> / <dict> / <key>name</key> / <string>Бен Аффлек,Джордж Клуни</string> / </dict> / </array> / <key>screenwriters</key> / <array> / <dict> / <key>name</key> / <string>Джошуа Бирмен,Крис Террио,Тони Мендес</string> / </dict> / </array> / </dict> / </plist>

Видео #1
Идентификатор : 1
Формат : AVC
Формат/Информация : Advanced Video Codec
Профиль формата : <a href="mailto:High@L4.0" class="postLink">High@L4.0</a>
Параметр CABAC формата : Да
Параметр ReFrames формата : 4 кадра
Идентификатор кодека : avc1
Идентификатор кодека/Информация : Advanced Video Coding
Продолжительность : 2 ч. 0 м.
Вид битрейта : Переменный
Битрейт : 13,0 Мбит/сек
Ширина : 1920 пикселей
Высота : 800 пикселей
Соотношение сторон : 2,40:1
Режим частоты кадров : Переменный
Частота кадров : 23,976 кадра/сек
Минимальная частота кадров : 23,974 кадра/сек
Максимальная частота кадров : 23,981 кадра/сек
Цветовое пространство : YUV
Субдискретизация насыщенности : 4:2:0
Битовая глубина : 8 бит
Тип развёртки : Прогрессивная
Бит/(Пиксели*Кадры) : 0.354
Размер потока : 11,0 Гбайт (92%)
Библиотека кодирования : x264 core 120
Настройки программы : cabac=1 / ref=4 / deblock=1:1:0 / analyse=0x3:0x133 / me=umh / subme=10 / psy=1 / psy_rd=0.70:0.00 / mixed_ref=1 / me_range=32 / chroma_me=1 / trellis=2 / 8x8dct=1 / cqm=0 / deadzone=21,11 / fast_pskip=0 / chroma_qp_offset=-2 / threads=12 / sliced_threads=0 / nr=0 / decimate=0 / interlaced=0 / bluray_compat=0 / constrained_intra=0 / bframes=4 / b_pyramid=2 / b_adapt=2 / b_bias=0 / direct=3 / weightb=1 / open_gop=0 / weightp=2 / keyint=240 / keyint_min=24 / scenecut=40 / intra_refresh=0 / rc_lookahead=40 / rc=crf / mbtree=0 / crf=19.0 / qcomp=0.60 / qpmin=0 / qpmax=69 / qpstep=4 / vbv_maxrate=25000 / vbv_bufsize=25000 / crf_max=0.0 / nal_hrd=none / ip_ratio=1.40 / pb_ratio=1.30 / aq=1:1.00
Язык : English
Дата кодирования : UTC 2013-02-02 16:07:13
Дата пометки : UTC 2013-02-03 00:26:18
Основные цвета : BT.709
Характеристики трансфера : BT.709
Коэффициенты матрицы : BT.709

Видео #2
Идентификатор : 8
Формат : JPEG
Идентификатор кодека : jpeg
Продолжительность : 2 ч. 0 м.
Вид битрейта : Переменный
Битрейт : 554 бит/сек
Ширина : 640 пикселей
Высота : 266 пикселей
Соотношение сторон : 2,40:1
Режим частоты кадров : Переменный
Частота кадров : 0,002 кадр/сек
Минимальная частота кадров : 0,001 кадр/сек
Максимальная частота кадров : 0,002 кадр/сек
Цветовое пространство : YUV
Субдискретизация насыщенности : 4:2:0
Битовая глубина : 8 бит
Метод сжатия : С потерями
Бит/(Пиксели*Кадры) : 1.627
Размер потока : 406 Кбайт (0%)
Дата кодирования : UTC 2013-02-03 08:32:57
Дата пометки : UTC 2013-02-03 08:32:58

Аудио #1
Идентификатор : 2
Формат : AAC
Формат/Информация : Advanced Audio Codec
Профиль формата : LC
Идентификатор кодека : 40
Продолжительность : 2 ч. 0 м.
Вид битрейта : Переменный
Битрейт : 160 Кбит/сек
Максимальный битрейт : 247 Кбит/сек
Каналы : 2 канала
Расположение каналов : Front: L R
Частота : 48,0 КГц
Метод сжатия : С потерями
Задержка видео : 83 мс.
Размер потока : 138 Мбайт (1%)
Язык : Russian
Дата кодирования : UTC 2013-02-03 08:31:36
Дата пометки : UTC 2013-02-03 08:31:59

Аудио #2
Идентификатор : 3
Формат : AAC
Формат/Информация : Advanced Audio Codec
Профиль формата : LC
Идентификатор кодека : 40
Продолжительность : 2 ч. 0 м.
Вид битрейта : Переменный
Битрейт : 165 Кбит/сек
Максимальный битрейт : 247 Кбит/сек
Каналы : 2 канала
Расположение каналов : Front: L R
Частота : 48,0 КГц
Метод сжатия : С потерями
Задержка видео : 83 мс.
Размер потока : 142 Мбайт (1%)
Язык : English
Дата кодирования : UTC 2013-02-03 08:31:36
Дата пометки : UTC 2013-02-03 08:32:23

Аудио #3
Идентификатор : 4
Формат : AC-3
Формат/Информация : Audio Coding 3
Расширение режима : CM (complete main)
Параметр Endianness формата : Big
Идентификатор кодека : ac-3
Продолжительность : 2 ч. 0 м.
Вид битрейта : Постоянный
Битрейт : 384 Кбит/сек
Каналы : 6 каналов
Расположение каналов : Front: L C R, Side: L R, LFE
Частота : 48,0 КГц
Битовая глубина : 16 бит
Метод сжатия : С потерями
Задержка видео : 83 мс.
Размер потока : 331 Мбайт (3%)
Язык : Russian
Дата кодирования : UTC 2013-02-03 08:31:36
Дата пометки : UTC 2013-02-03 08:32:33

Аудио #4
Идентификатор : 5
Формат : AC-3
Формат/Информация : Audio Coding 3
Расширение режима : CM (complete main)
Параметр Endianness формата : Big
Идентификатор кодека : ac-3
Продолжительность : 2 ч. 0 м.
Вид битрейта : Постоянный
Битрейт : 448 Кбит/сек
Каналы : 6 каналов
Расположение каналов : Front: L C R, Side: L R, LFE
Частота : 48,0 КГц
Битовая глубина : 16 бит
Метод сжатия : С потерями
Задержка видео : 83 мс.
Размер потока : 386 Мбайт (3%)
Язык : English
Дата кодирования : UTC 2013-02-03 08:31:36
Дата пометки : UTC 2013-02-03 08:32:44

Текст #1
Идентификатор : 6
Формат : Timed text
Режим смешивания : sbtl
Идентификатор кодека : tx3g
Продолжительность : 1 ч. 54 м.
Вид битрейта : Переменный
Битрейт : 72 бит/сек
Задержка видео : 83 мс.
Размер потока : 60,2 Кбайт (0%)
Язык : English
Дата кодирования : UTC 2013-02-03 08:31:36
Дата пометки : UTC 2013-02-03 08:32:44

Текст #2
Идентификатор : 7
Формат : Apple text
Идентификатор кодека : text
Продолжительность : 2 ч. 0 м.
Вид битрейта : Переменный
Битрейт : 0 бит/сек
Задержка видео : 83 мс.
Размер потока : 279 байт (0%)
Язык : English
Дата кодирования : UTC 2013-02-03 08:32:44
Дата пометки : UTC 2013-02-03 08:32:44

Меню
00:00:00.000 : Chapter 1
00:12:39.759 : Chapter 2
00:19:36.091 : Chapter 3
00:28:59.571 : Chapter 4
00:42:48.607 : Chapter 5
00:50:01.540 : Chapter 6
01:00:00.054 : Chapter 7
01:09:09.520 : Chapter 8
01:19:46.823 : Chapter 9
01:30:14.117 : Chapter 10
01:39:00.851 : Chapter 11
01:51:34.771 : Chapter 12
x264 [info]: frame I:1499 Avg QP:17.45 size:167639 PSNR Mean Y:47.37 U:48.99 V:50.48 Avg:47.98 Global:47.40
x264 [info]: frame P:43744 Avg QP:18.78 size:104708 PSNR Mean Y:46.43 U:48.58 V:50.46 Avg:47.19 Global:45.82
x264 [info]: frame B:127918 Avg QP:20.89 size: 54327 PSNR Mean Y:44.14 U:46.34 V:48.76 Avg:44.95 Global:44.24
x264 [info]: consecutive B-frames: 2.2% 2.8% 7.0% 51.6% 36.4%
x264 [info]: mb I I16..4: 9.3% 70.3% 20.4%
x264 [info]: mb P I16..4: 2.6% 39.9% 2.6% P16..4: 28.3% 13.7% 5.0% 0.2% 0.0% skip: 7.8%
x264 [info]: mb B I16..4: 0.7% 11.6% 0.4% B16..8: 36.4% 10.8% 2.6% direct:10.6% skip:26.9% L0:43.8% L1:43.7% BI:12.6%
x264 [info]: 8x8 transform intra:88.9% inter:65.9%
x264 [info]: direct mvs spatial:100.0% temporal:0.0%
x264 [info]: coded y,uvDC,uvAC intra: 95.3% 91.5% 80.2% inter: 40.9% 36.1% 16.6%
x264 [info]: i16 v,h,dc,p: 24% 12% 29% 36%
x264 [info]: i8 v,h,dc,ddl,ddr,vr,hd,vl,hu: 10% 7% 16% 10% 12% 11% 10% 12% 12%
x264 [info]: i4 v,h,dc,ddl,ddr,vr,hd,vl,hu: 14% 12% 12% 7% 12% 11% 11% 9% 12%
x264 [info]: i8c dc,h,v,p: 61% 12% 13% 13%
x264 [info]: Weighted P-Frames: Y:2.8% UV:1.8%
x264 [info]: ref P L0: 52.1% 8.4% 28.2% 10.6% 0.7% 0.0%
x264 [info]: ref B L0: 86.2% 11.2% 2.6%
x264 [info]: ref B L1: 92.8% 7.2%
x264 [info]: SSIM Mean Y:0.9756892 (16.142db)
x264 [info]: PSNR Mean Y:44.750 U:46.931 V:49.206 Avg:45.540 Global:44.605 kb/s:13049.72
Общее
Полное имя : /Volumes/G-RAID with Thunderbolt/ARGO 720.m4v
Формат : MPEG-4
Профиль формата : Base Media / Version 2
Идентификатор кодека : mp42
Размер файла : 6,02 Гбайт
Продолжительность : 2 ч. 0 м.
Режим общего битрейта : Переменный
Общий поток : 7158 Кбит/сек
Название фильма : Argo
Исполнитель : Ben Affleck
Жанр : Drama
Дата записи : UTC 2012-11-08 07:00:00
Дата кодирования : UTC 2013-02-03 07:48:06
Дата пометки : UTC 2013-02-03 10:58:18
Правообладатель : © 2012 Warner Bros. Entertainment Inc.
Обложка : Yes
desc : 4 ноября 1979 г. революция в Иране достигает своего апогея, исламисты штурмуют посольство США в Тегеране и берут в заложники 52 американца.
ldes : 4 ноября 1979 г. революция в Иране достигает своего апогея, исламисты штурмуют посольство США в Тегеране и берут в заложники 52 американца. Но в этом хаосе шестерым удается ускользнуть и найти прибежище в доме канадского посла. Понимая, что их обнаружение и, вероятнее всего, убийство - всего лишь вопрос времени, Тони Мендес, специалист ЦРУ по тайному вывозу людей из страны, предлагает рискованный план безопасной эвакуации. План столь невероятен, что такое бывает только в кино.
hdvd : 1
stik : 9
rtng : 0
cnID : 589625320
xid : Apple:vendor_id:2012-462487
iTunEXTC : mpaa|R|400|
iTunMOVI : <?xml version="1.0" encoding="UTF-8"?> / <!DOCTYPE plist PUBLIC "-//Apple//DTD PLIST 1.0//EN" "http://www.apple.com/DTDs/PropertyList-1.0.dtd"> / <plist version="1.0"> / <dict> / <key>cast</key> / <array> / <dict> / <key>name</key> / <string>Бен Аффлек</string> / </dict> / <dict> / <key>name</key> / <string>Брайан Крэнстон</string> / </dict> / <dict> / <key>name</key> / <string>Алан Аркин</string> / </dict> / <dict> / <key>name</key> / <string>Джон Гудмен</string> / </dict> / <dict> / <key>name</key> / <string>Виктор Гарбер</string> / </dict> / <dict> / <key>name</key> / <string>Тейт Донован</string> / </dict> / <dict> / <key>name</key> / <string>Клеа Дюваль</string> / </dict> / <dict> / <key>name</key> / <string>Скут МакНэйри</string> / </dict> / <dict> / <key>name</key> / <string>Рори Кокрейн</string> / </dict> / <dict> / <key>name</key> / <string>Кристофер Денхам</string> / </dict> / </array> / <key>directors</key> / <array> / <dict> / <key>name</key> / <string>Бен Аффлек</string> / </dict> / </array> / <key>producers</key> / <array> / <dict> / <key>name</key> / <string>Бен Аффлек,Джордж Клуни</string> / </dict> / </array> / <key>screenwriters</key> / <array> / <dict> / <key>name</key> / <string>Джошуа Бирмен,Крис Террио,Тони Мендес</string> / </dict> / </array> / </dict> / </plist>

Видео #1
Идентификатор : 1
Формат : AVC
Формат/Информация : Advanced Video Codec
Профиль формата : <a href="mailto:High@L3.1" class="postLink">High@L3.1</a>
Параметр CABAC формата : Нет
Параметр ReFrames формата : 3 кадра
Идентификатор кодека : avc1
Идентификатор кодека/Информация : Advanced Video Coding
Продолжительность : 2 ч. 0 м.
Вид битрейта : Переменный
Битрейт : 6000 Кбит/сек
Ширина : 1280 пикселей
Высота : 532 пикселя
Соотношение сторон : 2,40:1
Режим частоты кадров : Переменный
Частота кадров : 23,976 кадра/сек
Минимальная частота кадров : 19,557 кадров/сек
Максимальная частота кадров : 23,981 кадра/сек
Цветовое пространство : YUV
Субдискретизация насыщенности : 4:2:0
Битовая глубина : 8 бит
Тип развёртки : Прогрессивная
Бит/(Пиксели*Кадры) : 0.367
Размер потока : 5,03 Гбайт (84%)
Библиотека кодирования : x264 core 120
Настройки программы : cabac=0 / ref=3 / deblock=1:0:0 / analyse=0x3:0x113 / me=umh / subme=9 / psy=1 / psy_rd=1.00:0.00 / mixed_ref=1 / me_range=32 / chroma_me=1 / trellis=0 / 8x8dct=1 / cqm=0 / deadzone=21,11 / fast_pskip=1 / chroma_qp_offset=-2 / threads=12 / sliced_threads=0 / nr=0 / decimate=0 / interlaced=0 / bluray_compat=0 / constrained_intra=0 / bframes=3 / b_pyramid=0 / b_adapt=2 / b_bias=0 / direct=3 / weightb=0 / open_gop=0 / weightp=0 / keyint=240 / keyint_min=24 / scenecut=40 / intra_refresh=0 / rc_lookahead=40 / rc=2pass / mbtree=1 / bitrate=6000 / ratetol=1.0 / qcomp=0.60 / qpmin=3 / qpmax=69 / qpstep=4 / cplxblur=20.0 / qblur=0.5 / vbv_maxrate=9500 / vbv_bufsize=9500 / nal_hrd=none / ip_ratio=1.40 / aq=1:1.00
Язык : English
Дата кодирования : UTC 2013-02-03 07:48:06
Дата пометки : UTC 2013-02-03 09:43:49
Основные цвета : BT.709
Характеристики трансфера : BT.709
Коэффициенты матрицы : BT.709

Видео #2
Идентификатор : 8
Формат : JPEG
Идентификатор кодека : jpeg
Продолжительность : 2 ч. 0 м.
Вид битрейта : Переменный
Битрейт : 558 бит/сек
Ширина : 640 пикселей
Высота : 266 пикселей
Соотношение сторон : 2,40:1
Режим частоты кадров : Переменный
Частота кадров : 0,002 кадр/сек
Минимальная частота кадров : 0,001 кадр/сек
Максимальная частота кадров : 0,002 кадр/сек
Цветовое пространство : YUV
Субдискретизация насыщенности : 4:2:0
Битовая глубина : 8 бит
Метод сжатия : С потерями
Бит/(Пиксели*Кадры) : 1.639
Размер потока : 409 Кбайт (0%)
Язык : English
Дата кодирования : UTC 2013-02-03 10:57:48
Дата пометки : UTC 2013-02-03 10:57:48

Аудио #1
Идентификатор : 2
Формат : AAC
Формат/Информация : Advanced Audio Codec
Профиль формата : LC
Идентификатор кодека : 40
Продолжительность : 2 ч. 0 м.
Вид битрейта : Переменный
Битрейт : 160 Кбит/сек
Максимальный битрейт : 247 Кбит/сек
Каналы : 2 канала
Расположение каналов : Front: L R
Частота : 48,0 КГц
Метод сжатия : С потерями
Задержка видео : 42 мс.
Размер потока : 138 Мбайт (2%)
Язык : Russian
Дата кодирования : UTC 2013-02-03 10:54:19
Дата пометки : UTC 2013-02-03 10:55:13

Аудио #2
Идентификатор : 3
Формат : AAC
Формат/Информация : Advanced Audio Codec
Профиль формата : LC
Идентификатор кодека : 40
Продолжительность : 2 ч. 0 м.
Вид битрейта : Переменный
Битрейт : 165 Кбит/сек
Максимальный битрейт : 247 Кбит/сек
Каналы : 2 канала
Расположение каналов : Front: L R
Частота : 48,0 КГц
Метод сжатия : С потерями
Задержка видео : 42 мс.
Размер потока : 142 Мбайт (2%)
Язык : English
Дата кодирования : UTC 2013-02-03 10:54:19
Дата пометки : UTC 2013-02-03 10:56:02

Аудио #3
Идентификатор : 4
Формат : AC-3
Формат/Информация : Audio Coding 3
Расширение режима : CM (complete main)
Параметр Endianness формата : Big
Идентификатор кодека : ac-3
Продолжительность : 2 ч. 0 м.
Вид битрейта : Постоянный
Битрейт : 384 Кбит/сек
Каналы : 6 каналов
Расположение каналов : Front: L C R, Side: L R, LFE
Частота : 48,0 КГц
Битовая глубина : 16 бит
Метод сжатия : С потерями
Задержка видео : 42 мс.
Размер потока : 331 Мбайт (5%)
Язык : Russian
Дата кодирования : UTC 2013-02-03 10:54:20
Дата пометки : UTC 2013-02-03 10:56:52

Аудио #4
Идентификатор : 5
Формат : AC-3
Формат/Информация : Audio Coding 3
Расширение режима : CM (complete main)
Параметр Endianness формата : Big
Идентификатор кодека : ac-3
Продолжительность : 2 ч. 0 м.
Вид битрейта : Постоянный
Битрейт : 448 Кбит/сек
Каналы : 6 каналов
Расположение каналов : Front: L C R, Side: L R, LFE
Частота : 48,0 КГц
Битовая глубина : 16 бит
Метод сжатия : С потерями
Задержка видео : 42 мс.
Размер потока : 386 Мбайт (6%)
Язык : English
Дата кодирования : UTC 2013-02-03 10:54:20
Дата пометки : UTC 2013-02-03 10:57:42

Текст #1
Идентификатор : 6
Формат : Timed text
Режим смешивания : sbtl
Идентификатор кодека : tx3g
Продолжительность : 1 ч. 54 м.
Вид битрейта : Переменный
Битрейт : 72 бит/сек
Задержка видео : 42 мс.
Размер потока : 60,2 Кбайт (0%)
Язык : English
Дата кодирования : UTC 2013-02-03 10:54:20
Дата пометки : UTC 2013-02-03 10:57:42

Текст #2
Идентификатор : 7
Формат : Apple text
Идентификатор кодека : text
Продолжительность : 2 ч. 0 м.
Вид битрейта : Переменный
Битрейт : 0 бит/сек
Задержка видео : 42 мс.
Размер потока : 279 байт (0%)
Язык : English
Дата кодирования : UTC 2013-02-03 10:57:42
Дата пометки : UTC 2013-02-03 10:57:42

Меню
00:00:00.000 : Chapter 1
00:12:39.759 : Chapter 2
00:19:36.091 : Chapter 3
00:28:59.571 : Chapter 4
00:42:48.607 : Chapter 5
00:50:01.540 : Chapter 6
01:00:00.054 : Chapter 7
01:09:09.520 : Chapter 8
01:19:46.823 : Chapter 9
01:30:14.117 : Chapter 10
01:39:00.851 : Chapter 11
01:51:34.771 : Chapter 12
x264 [info]: frame I:1837 Avg QP:16.65 size:102826 PSNR Mean Y:46.56 U:48.75 V:50.21 Avg:47.31 Global:46.72
x264 [info]: frame P:60276 Avg QP:18.17 size: 48056 PSNR Mean Y:45.54 U:48.25 V:49.88 Avg:46.39 Global:45.15
x264 [info]: frame B:111048 Avg QP:19.97 size: 20899 PSNR Mean Y:43.37 U:46.40 V:48.64 Avg:44.32 Global:43.63
x264 [info]: consecutive B-frames: 3.3% 24.7% 27.0% 45.1%
x264 [info]: mb I I16..4: 7.4% 60.5% 32.1%
x264 [info]: mb P I16..4: 1.3% 13.8% 4.8% P16..4: 35.2% 24.1% 9.8% 0.0% 0.0% skip:10.9%
x264 [info]: mb B I16..4: 0.2% 4.2% 1.1% B16..8: 45.5% 13.4% 2.6% direct: 7.1% skip:25.8% L0:41.2% L1:50.0% BI: 8.9%
x264 [info]: 8x8 transform intra:70.5% inter:48.1%
x264 [info]: direct mvs spatial:99.1% temporal:0.9%
x264 [info]: coded y,uvDC,uvAC intra: 92.2% 90.4% 79.2% inter: 37.9% 30.9% 18.1%
x264 [info]: i16 v,h,dc,p: 39% 14% 12% 35%
x264 [info]: i8 v,h,dc,ddl,ddr,vr,hd,vl,hu: 10% 7% 6% 11% 16% 15% 14% 11% 10%
x264 [info]: i4 v,h,dc,ddl,ddr,vr,hd,vl,hu: 23% 6% 3% 10% 14% 13% 12% 10% 8%
x264 [info]: i8c dc,h,v,p: 56% 14% 17% 12%
x264 [info]: ref P L0: 72.2% 17.1% 10.7%
x264 [info]: ref B L0: 81.4% 18.6%
x264 [info]: SSIM Mean Y:0.9730578 (15.696db)
x264 [info]: PSNR Mean Y:44.160 U:47.069 V:49.090 Avg:45.070 Global:44.124 kb/s:5988.53
XID: Apple:vendor_id:2012-462487
contentID: 589625320
Copyright: © 2012 Warner Bros. Entertainment Inc.
Screenwriters: Джошуа Бирмен,Крис Террио,Тони Мендес
Producers: Бен Аффлек,Джордж Клуни
Director: Бен Аффлек
Cast: Бен Аффлек, Брайан Крэнстон, Алан Аркин, Джон Гудмен, Виктор Гарбер, Тейт Донован, Клеа Дюваль, Скут МакНэйри, Рори Кокрейн, Кристофер Денхам
Rating: 5
Long Description: 4 ноября 1979 г. революция в Иране достигает своего апогея, исламисты штурмуют посольство США в Тегеране и берут в заложники 52 американца. Но в этом хаосе шестерым удается ускользнуть и найти прибежище в доме канадского посла. Понимая, что их обнаружение и, вероятнее всего, убийство - всего лишь вопрос времени, Тони Мендес, специалист ЦРУ по тайному вывозу людей из страны, предлагает рискованный план безопасной эвакуации. План столь невероятен, что такое бывает только в кино.
Description: 4 ноября 1979 г. революция в Иране достигает своего апогея, исламисты штурмуют посольство США в Тегеране и берут в заложники 52 американца.
Release Date: 2012-11-08T07:00:00Z
Genre: Drama
Artist: Ben Affleck
Name: Argo


Трекер:  [ 03-Фев-2013 17:11 ]

  

Скачать .torrent

Размер .torrent файла 90 KB


Размер: 17.98 GB
Хэш (hash) релиза: 4805a460b2ce047e994b694de4b487a30b8f3555

Еще никто не оставлял запись к записи скачать торрент Опeрация «Aрго» Аrgo . Будь первым!

!Обратная связь