Скачать через торрент Майер Стефани - Гостья бесплатно русская версия torrent активатор

Если у вас наблюдаются проблемы со скриншотами, переходом по ссылками, скачиванием торрентов - проблемы в блокировщике рекламы AdBlock. #хорошегоДня!


Статистика раздачи
Размер:  543 MB   |    Зарегистрирован:  4 года 8 месяцев   |    .torrent скачан:  83 раза   |   
Раздают:  1  
   
Загрузка...
 
Автор Сообщение

Galfimbul

avatar Galfimbul


Майер Стефани - Гостья [Сергей Кирсанов, 2011, Фантастика, 96 kbps]

Год выпуска: 2011
Язык: Русский
Автор: Майер Стефани
Исполнитель: Кирсанов Сергей
Жанр: Фантастика
Издательство: Нигде не купишь
Тип аудиокниги: аудиокнига
Аудио кодек: AAC
Формат: .m4b
Битрейт: 64 kbps
Частота оцифровки: 32000 Гц
Программа-риповщик: MarkAble
Общая продолжительность: 20:04:08

Описание:
Земля - в опасности! Наше место скоро займут Души - лишенные плотской оболочки пришельцы, вытесняющие из человеческих тел разум и замещающий его разумом собственным. Большая часть человечества уже погибла. Немногие выжившие скрываются в жалкой попытке отсрочить неизбежное... Теперь Душа пытается захватить тело юной Мелани. Однако происходит неожиданное: Мелани и Душа вынуждены сосуществовать в одном теле. Гостье надлежало выследить и выдать землян-повстанцев, с которыми связана Мелани, но она помогает своей носительнице...

Вшитая обложка: есть
Разбитие на главы: есть
GeneralComplete name : S:\Майер Стефани - Гостья\Майер Стефани (2011) - Гостья, Часть 1.m4bFormat : MPEG-4Format profile : Apple audio with iTunes positionCodec ID : M4BFile size : 263 MiBDuration : 9h 42mnOverall bit rate mode : VariableOverall bit rate : 63.2 KbpsAlbum : ГостьяAlbum/Performer : Стефани МайерPart/Position : 1Part/Total : 1Track name : Гостья (часть 1)Track name/Position : 1Track name/Total : 2Performer : Стефани МайерGenre : ФантастикаRecorded date : 2011Encoded date : UTC 2012-07-27 21:05:18Tagged date : UTC 2012-07-27 22:48:04Cover : YesComment : Исполнитель: Сергей Кирсанов©art : Стефани Майерdesc : Audiobook created by MarkAble

AudioID : 1Format : AACFormat/Info : Advanced Audio CodecFormat profile : LCCodec ID : 40Duration : 9h 42mnBit rate mode : VariableBit rate : 64.0 KbpsMaximum bit rate : 71.2 KbpsChannel(s) : 2 channelsChannel positions : Front: L RSampling rate : 32.0 KHzCompression mode : LossyStream size : 259 MiB (98%)Encoded date : UTC 2012-07-27 21:05:18Tagged date : UTC 2012-07-27 22:48:04

TextID : 2Format : Apple textCodec ID : textDuration : 9h 42mnBit rate mode : VariableBit rate : 0 bpsStream size : 1.34 KiB (0%)Language : EnglishEncoded date : UTC 2012-07-27 21:38:53Tagged date : UTC 2012-07-27 21:38:53
GeneralComplete name : S:\Майер Стефани - Гостья\Майер Стефани (2011) - Гостья, Часть 2.m4bFormat : MPEG-4Format profile : Apple audio with iTunes positionCodec ID : M4BFile size : 280 MiBDuration : 10h 21mnOverall bit rate mode : VariableOverall bit rate : 62.9 KbpsAlbum : ГостьяAlbum/Performer : Стефани МайерPart/Position : 1Part/Total : 1Track name : Гостья (часть 2)Track name/Position : 2Track name/Total : 2Performer : Стефани МайерGenre : ФантастикаRecorded date : 2011Encoded date : UTC 2012-07-27 21:21:16Tagged date : UTC 2012-07-27 22:48:04Cover : YesComment : Исполнитель: Сергей Кирсанов©art : Стефани Майерdesc : Audiobook created by MarkAble

AudioID : 1Format : AACFormat/Info : Advanced Audio CodecFormat profile : LCCodec ID : 40Duration : 10h 21mnSource duration : 10h 21mnBit rate mode : VariableBit rate : 64.0 KbpsMaximum bit rate : 70.7 KbpsChannel(s) : 2 channelsChannel positions : Front: L RSampling rate : 32.0 KHzCompression mode : LossyStream size : 275 MiB (98%)Source stream size : 275 MiB (98%)Encoded date : UTC 2012-07-27 21:21:16Tagged date : UTC 2012-07-27 22:48:04

TextID : 2Format : Apple textCodec ID : textDuration : 10h 21mnSource duration : 10h 21mnBit rate mode : VariableBit rate : 0 bpsStream size : 1.46 KiB (0%)Source stream size : 1.46 KiB (0%)Language : EnglishEncoded date : UTC 2012-07-27 21:39:45Tagged date : UTC 2012-07-27 21:39:45


Трекер:  [ 02-Фев-2013 17:42 ]

  

Скачать .torrent

Размер .torrent файла 11 KB


Размер: 543 MB
Хэш (hash) релиза: 00c324202489751261e2e293e551bc6a1ad1328e

Еще никто не оставлял запись к записи скачать торрент Майер Стефани - Гостья . Будь первым!

!Обратная связь