Скачать через торрент [iPad] 007: Координаты «Скайфолл» Skyfall бесплатно русская версия torrent активатор

Если у вас наблюдаются проблемы со скриншотами, переходом по ссылками, скачиванием торрентов - проблемы в блокировщике рекламы AdBlock. #хорошегоДня!


Статистика раздачи
Размер:  3.75 GB   |    Зарегистрирован:  4 года 8 месяцев   |    .torrent скачан:  108 раз   |   
Раздают:  1  
   
Загрузка...
 
Автор Сообщение

Galfimbul

avatar Galfimbul


007: Координаты «Скайфолл» / Skyfall

Год выпуска: 2012
Страна: Великобритания, США
Студия: Metro-Goldwyn-Mayer (MGM)
Жанр: Боевик, триллер, криминал, приключения
Продолжительность: 02:23:10
Рейтинг MPAA: PG-13
Перевод: Профессиональный (дублированный)
Оригинальная аудиодорожка: есть
Cубтитры: русские и английские

Режиссёр: Сэм Мендес/ Sam Mendes
Сценарий: Нил Пёрвис, Роберт Уэйд, Джон Логан
Продюссер: Барбара Брокколи, Майкл Дж. Уилсон, Чи Ва Ли

В ролях: Дэниэл Крэйг, Хавьер Бардем, Джуди Денч, Рэйф Файнс, Бен Уишоу, Наоми Харрис, Альберт Финни, Беренис Марло, Хелен МакКрори, Тония Сотиропулу, Рори Киннер, Ола Рапас, Николас Вудесон, Уильям Бакхерст, Элиз дю Ту, Йен Бонар, Гордон Милн, Питер Башам, Бен Лойд-Холмс, Вульф Блицер, Дэвид Гиллис, Джеймс Ли, Кеннет Хэзелдайн, Орион Ли, Дейв Вон, Тэнк Донг, Роджер Йуан, Лианг Янг, Еннис Чун-Ян, Чойе Бэй, Сид Мэн, Анджела Трэн, Миодраг Капор, Хув Эдвардс, Адебайо Боладжи, Элиа Ло Тауро, Амир Бутрус, Хан Бонфилс, Николас Го, Джон Ходжкинсон, Курт Эгиаван, Оливер Джонстоун, Гарри Кершоу, Берт Цезар, Пол Венаблс, Криспин Леттс

Описание:
Лояльность Бонда своей начальнице М под угрозой со стороны ее прошлого, которое внезапно даст о себе знать. MI6 подвергается нападению, и агент 007 должен ликвидировать угрозу, несмотря на цену, которую придется заплатить.

Доп. информация:


Качество исходника: BDRemux - 007: Координаты «Скайфолл» / Skyfall / 2012 / ДБ, СТ / Blu-Ray Remux (1080p)
Качество: BDRip
Разрешение: 1024х432
Формат: MP4
Видео: H.264, 2,40:1 , 3500kbit/s; 23.976fps

Аудио 1: Russian/Dub, AAC, 126kbit/s; 2ch; 48KHz
Аудио 2: English/Original, AAC, 127kbit/s; 2ch; 48KHz
XID: Apple:vendor_id:2012-408871contentID: 588124375Screenwriters: Нил Пёрвис, Роберт Уэйд, Джон ЛоганProducers: Барбара Брокколи, Майкл Дж. Уилсон, Чи Ва ЛиDirector: Сэм МендесCast: Дэниэл Крэйг, Хавьер Бардем, Джуди Денч, Рэйф Файнс, Бен Уишоу, Наоми Харрис, Альберт Финни, Беренис Марло, Хелен МакКрори, Тония Сотиропулу, Рори Киннер, Ола Рапас, Николас Вудесон.Rating: 4Long Description: Лояльность Бонда своей начальнице М под угрозой со стороны ее прошлого, которое внезапно даст о себе знать. MI6 подвергается нападению, и агент 007 должен ликвидировать угрозу, несмотря на цену, которую придется заплатить.Description: Лояльность Бонда своей начальнице М под угрозой со стороны ее прошлого, которое внезапно даст о себе знать.Release Date: 2012-10-23T15:00:00ZGenre: Action & AdventureArtist: Сэм МендесName: 007: Координаты «Скайфолл»
GeneralComplete name : /Users/imac/HandBrake/007-Koordinaty.skajfoll.2012.x264.BDRip.1024x.m4vFormat : MPEG-4Codec ID : M4VFile size : 3.75 GiBDuration : 2h 23mnOverall bit rate mode : VariableOverall bit rate : 3 754 KbpsMovie name : 007: Координаты «Скайфолл»Performer : Сэм МендесGenre : Action & AdventureRecorded date : UTC 2012-10-23 15:00:00Encoded date : UTC 2013-02-02 11:16:46Tagged date : UTC 2013-02-02 11:21:22Cover : Yesdesc : Лояльность Бонда своей начальнице М под угрозой со стороны ее прошлого, которое внезапно даст о себе знать.ldes : Лояльность Бонда своей начальнице М под угрозой со стороны ее прошлого, которое внезапно даст о себе знать. MI6 подвергается нападению, и агент 007 должен ликвидировать угрозу, несмотря на цену, которую придется заплатить.stik : 9rtng : 0cnID : 588124375xid : Apple:vendor_id:2012-408871iTunEXTC : mpaa|PG-13|300|iTunMOVI : <?xml version="1.0" encoding="UTF-8"?> / <!DOCTYPE plist PUBLIC "-//Apple//DTD PLIST 1.0//EN" "http://www.apple.com/DTDs/PropertyList-1.0.dtd"> / <plist version="1.0"> / <dict> / <key>cast</key> / <array> / <dict> / <key>name</key> / <string>Дэниэл Крэйг</string> / </dict> / <dict> / <key>name</key> / <string>Хавьер Бардем</string> / </dict> / <dict> / <key>name</key> / <string>Джуди Денч</string> / </dict> / <dict> / <key>name</key> / <string>Рэйф Файнс</string> / </dict> / <dict> / <key>name</key> / <string>Бен Уишоу</string> / </dict> / <dict> / <key>name</key> / <string>Наоми Харрис</string> / </dict> / <dict> / <key>name</key> / <string>Альберт Финни</string> / </dict> / <dict> / <key>name</key> / <string>Беренис Марло</string> / </dict> / <dict> / <key>name</key> / <string>Хелен МакКрори</string> / </dict> / <dict> / <key>name</key> / <string>Тония Сотиропулу</string> / </dict> / <dict> / <key>name</key> / <string>Рори Киннер</string> / </dict> / <dict> / <key>name</key> / <string>Ола Рапас</string> / </dict> / <dict> / <key>name</key> / <string>Николас Вудесон.</string> / </dict> / </array> / <key>directors</key> / <array> / <dict> / <key>name</key> / <string>Сэм Мендес</string> / </dict> / </array> / <key>producers</key> / <array> / <dict> / <key>name</key> / <string>Барбара Брокколи</string> / </dict> / <dict> / <key>name</key> / <string>Майкл Дж. Уилсон</string> / </dict> / <dict> / <key>name</key> / <string>Чи Ва Ли</string> / </dict> / </array> / <key>screenwriters</key> / <array> / <dict> / <key>name</key> / <string>Нил Пёрвис</string> / </dict> / <dict> / <key>name</key> / <string>Роберт Уэйд</string> / </dict> / <dict> / <key>name</key> / <string>Джон Логан</string> / </dict> / </array> / </dict> / </plist>

Video #1ID : 1Format : AVCFormat/Info : Advanced Video CodecFormat profile : <a href="mailto:High@L3.1Format" class="postLink">High@L3.1Format</a> settings, CABAC : YesFormat settings, ReFrames : 9 framesCodec ID : avc1Codec ID/Info : Advanced Video CodingDuration : 2h 23mnBit rate mode : VariableBit rate : 3 500 KbpsWidth : 1 024 pixelsHeight : 432 pixelsDisplay aspect ratio : 2.40:1Frame rate mode : VariableFrame rate : 23.976 fpsMinimum frame rate : 23.784 fpsMaximum frame rate : 24.272 fpsColor space : YUVChroma subsampling : 4:2:0Bit depth : 8 bitsScan type : ProgressiveBits/(Pixel*Frame) : 0.330Stream size : 3.49 GiB (93%)Writing library : x264 core 120Encoding settings : cabac=1 / ref=9 / deblock=1:0:0 / analyse=0x3:0x113 / me=umh / subme=9 / psy=1 / psy_rd=1.00:0.00 / mixed_ref=1 / me_range=32 / chroma_me=1 / trellis=1 / 8x8dct=1 / cqm=0 / deadzone=21,11 / fast_pskip=1 / chroma_qp_offset=-2 / threads=12 / sliced_threads=0 / nr=0 / decimate=1 / interlaced=0 / bluray_compat=0 / constrained_intra=0 / bframes=6 / b_pyramid=2 / b_adapt=2 / b_bias=0 / direct=1 / weightb=1 / open_gop=0 / weightp=2 / keyint=240 / keyint_min=24 / scenecut=40 / intra_refresh=0 / rc_lookahead=40 / rc=2pass / mbtree=1 / bitrate=3500 / ratetol=1.0 / qcomp=0.60 / qpmin=3 / qpmax=69 / qpstep=4 / cplxblur=20.0 / qblur=0.5 / ip_ratio=1.40 / aq=1:1.00Language : EnglishEncoded date : UTC 2013-02-02 11:16:47Tagged date : UTC 2013-02-02 11:20:00Color primaries : BT.709-5, BT.1361, IEC 61966-2-4, SMPTE RP177Transfer characteristics : BT.709-5, BT.1361Matrix coefficients : BT.709-5, BT.1361, IEC 61966-2-4 709, SMPTE RP177

Video #2ID : 7Format : JPEGCodec ID : jpegDuration : 2h 23mnBit rate mode : VariableBit rate : 1 417 bpsWidth : 640 pixelsHeight : 270 pixelsDisplay aspect ratio : 2.40:1Frame rate mode : VariableFrame rate : 0.004 fpsMinimum frame rate : 0.002 fpsMaximum frame rate : 0.008 fpsColor space : YUVChroma subsampling : 4:2:0Bit depth : 8 bitsCompression mode : LossyBits/(Pixel*Frame) : 2.050Stream size : 1.35 MiB (0%)Language : EnglishEncoded date : UTC 2013-02-02 11:21:22Tagged date : UTC 2013-02-02 11:21:22

Audio #1ID : 2Format : AACFormat/Info : Advanced Audio CodecFormat profile : LCCodec ID : 40Duration : 2h 23mnBit rate mode : VariableBit rate : 126 KbpsMaximum bit rate : 200 KbpsChannel(s) : 2 channelsChannel positions : Front: L RSampling rate : 48.0 KHzCompression mode : LossyStream size : 129 MiB (3%)Language : RussianEncoded date : UTC 2013-02-02 11:16:47Tagged date : UTC 2013-02-02 11:20:15

Audio #2ID : 3Format : AACFormat/Info : Advanced Audio CodecFormat profile : LCCodec ID : 40Duration : 2h 23mnBit rate mode : VariableBit rate : 127 KbpsMaximum bit rate : 190 KbpsChannel(s) : 2 channelsChannel positions : Front: L RSampling rate : 48.0 KHzCompression mode : LossyStream size : 130 MiB (3%)Language : EnglishEncoded date : UTC 2013-02-02 11:16:47Tagged date : UTC 2013-02-02 11:21:07

Text #1ID : 4Format : Timed textMuxing mode : sbtlCodec ID : tx3gDuration : 2h 18mnBit rate mode : VariableBit rate : 62 bpsStream size : 63.0 KiB (0%)Language : RussianEncoded date : UTC 2013-02-02 11:16:47Tagged date : UTC 2013-02-02 11:21:07

Text #2ID : 5Format : Timed textMuxing mode : sbtlCodec ID : tx3gDuration : 2h 17mnBit rate mode : VariableBit rate : 42 bpsStream size : 42.1 KiB (0%)Language : EnglishEncoded date : UTC 2013-02-02 11:16:47Tagged date : UTC 2013-02-02 11:21:07

Text #3ID : 6Format : Apple textCodec ID : textDuration : 2h 23mnBit rate mode : ConstantBit rate : 1 bpsStream size : 832 Bytes (0%)Language : EnglishEncoded date : UTC 2013-02-02 11:21:07Tagged date : UTC 2013-02-02 11:21:07

Menu00:00:00.000 : 00:00:00.00000:04:28.560 : 00:04:28.47700:07:32.535 : 00:07:32.45200:12:47.475 : 00:12:47.39200:16:47.548 : 00:16:47.46500:21:37.421 : 00:21:37.33800:25:00.373 : 00:25:00.29000:29:25.304 : 00:29:25.22200:35:06.228 : 00:35:06.14600:38:27.846 : 00:38:27.76400:41:24.522 : 00:41:24.44000:46:22.986 : 00:46:22.90500:50:48.709 : 00:50:48.62900:54:53.370 : 00:54:53.29000:59:38.822 : 00:59:38.74201:05:14.324 : 01:05:14.24401:10:16.751 : 01:10:16.67101:17:09.830 : 01:17:09.75001:20:55.138 : 01:20:55.05901:26:10.453 : 01:26:10.37401:31:49.833 : 01:31:49.75401:37:04.605 : 01:37:04.52701:40:49.162 : 01:40:49.08501:43:46.047 : 01:43:45.97001:45:54.800 : 01:45:54.72301:52:10.675 : 01:52:10.59901:54:45.872 : 01:54:45.79601:58:13.120 : 01:58:13.04402:02:49.187 : 02:02:49.11202:09:38.721 : 02:09:38.64602:14:49.698 : 02:14:49.62302:17:46.499 : 02:17:46.425
x264 [info]: frame I:2154 Avg QP:11.23 size:112114 PSNR Mean Y:50.68 U:53.12 V:53.23 Avg:51.35 Global:50.82x264 [info]: frame P:49647 Avg QP:13.67 size: 39353 PSNR Mean Y:48.57 U:51.11 V:51.31 Avg:49.26 Global:48.40x264 [info]: frame B:154152 Avg QP:16.14 size: 10081 PSNR Mean Y:46.65 U:50.01 V:50.26 Avg:47.51 Global:46.97x264 [info]: consecutive B-frames: 2.9% 3.5% 8.4% 39.6% 14.1% 19.6% 11.9%x264 [info]: mb I I16..4: 8.4% 62.9% 28.6%x264 [info]: mb P I16..4: 1.6% 10.8% 3.1% P16..4: 28.5% 28.8% 21.5% 0.0% 0.0% skip: 5.6%x264 [info]: mb B I16..4: 0.2% 1.3% 0.5% B16..8: 35.0% 15.7% 5.7% direct: 6.2% skip:35.6% L0:45.1% L1:41.1% BI:13.8%x264 [info]: 8x8 transform intra:67.6% inter:59.0%x264 [info]: coded y,uvDC,uvAC intra: 91.1% 87.7% 76.9% inter: 33.8% 28.9% 11.4%x264 [info]: i16 v,h,dc,p: 35% 15% 8% 42%x264 [info]: i8 v,h,dc,ddl,ddr,vr,hd,vl,hu: 11% 11% 8% 9% 12% 12% 13% 11% 14%x264 [info]: i4 v,h,dc,ddl,ddr,vr,hd,vl,hu: 10% 10% 4% 9% 14% 13% 14% 11% 15%x264 [info]: i8c dc,h,v,p: 47% 22% 18% 13%x264 [info]: Weighted P-Frames: Y:6.0% UV:3.9%x264 [info]: ref P L0: 46.1% 8.5% 18.0% 7.4% 6.2% 4.4% 4.2% 2.3% 2.4% 0.3% 0.0%x264 [info]: ref B L0: 68.2% 14.4% 7.1% 3.9% 2.6% 2.2% 1.3% 0.4%x264 [info]: ref B L1: 90.8% 9.2%x264 [info]: SSIM Mean Y:0.9886653 (19.456db)x264 [info]: PSNR Mean Y:47.157 U:50.307 V:50.546 Avg:47.967 Global:47.306 kb/s:3491.80


Трекер:  [ 02-Фев-2013 17:42 ]

  

Скачать .torrent

Размер .torrent файла 38 KB


Размер: 3.75 GB
Хэш (hash) релиза: 8f1428844d96ed5392f891f0fd66847012fd5ebc

Еще никто не оставлял запись к записи скачать торрент [iPad] 007: Координаты «Скайфолл» Skyfall . Будь первым!

!Обратная связь