Скачать через торрент музыку VA - The Rock n Roll Scene бесплатно без регистрации torrent

Если у вас наблюдаются проблемы со скриншотами, переходом по ссылками, скачиванием торрентов - проблемы в блокировщике рекламы AdBlock. #хорошегоДня!


Статистика раздачи
Размер:  256 MB   |    Зарегистрирован:  4 года 8 месяцев   |    .torrent скачан:  124 раза   |   
Раздают:  1  
   
Загрузка...
 
Автор Сообщение

Galfimbul

avatar Galfimbul


The Rock 'n' Roll Scene

Жанр: Rock'n'Roll
Страна-производитель диска: England
Год издания: 1999
Издатель (лейбл): The Decca Record Co Ltd.
Номер по каталогу: 844 892-2
Страна: Great Britain
Аудиокодек: FLAC (*.flac)
Тип рипа: image+.cue
Битрейт аудио: lossless
Продолжительность: 59:22
Источник (релизер): AUDELAS KINGDOM
Наличие сканов в содержимом раздачи: да
01. Billy Boyle / My Baby´s Crazy `Bout Elvis
02. Joe Brown / Comes The Day
03. Joey Castell / Tryin´ To Get To You
04. Ken Colyers Skiffle Group / Downbound Train
05. Bob Cort Skiffle / School Day
06. Michael Cox / Too Hot To Handle
07. Terry Dene / Pretty Little Pearly
08. Jackie Dennis / La Dee Dah
09. Lonnie Donnegan Skiffle Group / Rock Island Line
10. Vince Eager & The Vagabonds / Yea Yea
11. Billy Fury / Collette
12. Wee Willie Harris / Rockin´ At The Two I´s
13. Eddie Hickey / Plain Jane
14. Sally Kelly / Little Cutie
15. Little Tony & His Brothers / Foxy Little Mama
16. Most Brothers / Whole Lotta Woman
17. Danny Rivers & Alexander Combo / My Baby´s Gone Away
18. Russ Sainty With The New Notes / Race With The Devil
19. Mort Shuman / Turn Me Loose
20. Freddie Starr & The Midnighters / It´s Shaking Time
21. Tommy Steele & The Steelmen / Elevator Rock
22. Rob Storme / Transistor Sister
23. Screaming Lord Sutch / I´m A Hog For You
24. Bobby Tempest / Don´t Leave Me
25. Terry White & The Terriers / Rock Around The Mailbag
Exact Audio Copy V1.0 beta 2 from 29. April 2011

Отчёт EAC об извлечении, выполненном 2. февраля 2013, 7:55

Various Artists / The Rock `N´ Roll Scene

Дисковод: ATAPI iHAS124 B Adapter: 1 ID: 1

Режим чтения : ДостоверностьИспользование точного потока : ДаОтключение кэша аудио : ДаИспользование указателей C2 : Нет

Коррекция смещения при чтении : 6Способность читать области Lead-in и Lead-out : НетЗаполнение пропущенных сэмплов тишиной : ДаУдаление блоков с тишиной в начале и конце : НетПри вычислениях CRC использовались нулевые сэмплы : ДаИнтерфейс : Встроенный Win32-интерфейс для Win NT/2000

Выходной формат : Пользовательский кодировщикВыбранный битрейт : 1024 kBit/sКачество : ВысокийДобавление ID3-тега : НетУтилита сжатия : C:\Program Files\Exact Audio Copy\FLAC\FLAC.EXEДополнительные параметры : -6 -V -T "ARTIST=%artist%" -T "TITLE=%title%" -T "ALBUM=%albumtitle%" -T "DATE=%year%" -T "TRACKNUMBER=%tracknr%" -T "GENRE=%genre%" -T "COMMENT=%comment%" -T "BAND=%albuminterpret%" -T "COMPOSER=%composer%" %haslyrics%--tag-from-

TOC извлечённого CD

Трек | Старт | Длительность | Начальный сектор | Конечный сектор --------------------------------------------------------------------- 1 | 0:00.33 | 2:36.62 | 33 | 11794 2 | 2:37.20 | 2:12.13 | 11795 | 21707 3 | 4:49.33 | 2:32.12 | 21708 | 33119 4 | 7:21.45 | 2:41.63 | 33120 | 45257 5 | 10:03.33 | 1:54.50 | 45258 | 53857 6 | 11:58.08 | 2:11.37 | 53858 | 63719 7 | 14:09.45 | 1:50.13 | 63720 | 71982 8 | 15:59.58 | 1:58.62 | 71983 | 80894 9 | 17:58.45 | 2:30.00 | 80895 | 92144 10 | 20:28.45 | 2:28.38 | 92145 | 103282 11 | 22:57.08 | 1:52.37 | 103283 | 111719 12 | 24:49.45 | 2:35.25 | 111720 | 123369 13 | 27:24.70 | 1:38.38 | 123370 | 130757 14 | 29:03.33 | 2:17.62 | 130758 | 141094 15 | 31:21.20 | 2:11.13 | 141095 | 150932 16 | 33:32.33 | 2:31.25 | 150933 | 162282 17 | 36:03.58 | 2:05.50 | 162283 | 171707 18 | 38:09.33 | 2:27.25 | 171708 | 182757 19 | 40:36.58 | 2:33.00 | 182758 | 194232 20 | 43:09.58 | 2:51.37 | 194233 | 207094 21 | 46:01.20 | 1:50.63 | 207095 | 215407 22 | 47:52.08 | 2:03.37 | 215408 | 224669 23 | 49:55.45 | 2:16.38 | 224670 | 234907 24 | 52:12.08 | 2:22.12 | 234908 | 245569 25 | 54:34.20 | 2:32.13 | 245570 | 256982

Характеристики диапазона извлечения и сообщения об ошибках

Выбранный диапазон

Имя файла D:\Muzika\VA - The Rock 'n' Roll Scene (1999)\Various Artists - The Rock `N´ Roll Scene.wav

Пиковый уровень 100.0 % Скорость извлечения 3.1 X Качество диапазона 100.0 % CRC теста 6752FBE7 CRC копии 6752FBE7 Копирование... OK

Ошибок не произошло

AccurateRip: сводка

Трек 1 : извлечено точно (доверие 2) [CC424516] (AR v1)Трек 2 : извлечено точно (доверие 2) [B69B2318] (AR v1)Трек 3 : извлечено точно (доверие 2) [6CCAD4E7] (AR v1)Трек 4 : извлечено точно (доверие 2) [39F5CFBE] (AR v1)Трек 5 : извлечено точно (доверие 2) [D9DCD613] (AR v1)Трек 6 : извлечено точно (доверие 2) [9B0B68AF] (AR v1)Трек 7 : извлечено точно (доверие 2) [7EF025B3] (AR v1)Трек 8 : извлечено точно (доверие 2) [2C29ADF1] (AR v1)Трек 9 : извлечено точно (доверие 2) [4B2C01C9] (AR v1)Трек 10 : извлечено точно (доверие 2) [668AC1DF] (AR v1)Трек 11 : извлечено точно (доверие 2) [23451988] (AR v1)Трек 12 : извлечено точно (доверие 2) [5522F402] (AR v1)Трек 13 : извлечено точно (доверие 2) [E1EBC09D] (AR v1)Трек 14 : извлечено точно (доверие 2) [6A22D188] (AR v1)Трек 15 : извлечено точно (доверие 2) [C18F93A6] (AR v1)Трек 16 : извлечено точно (доверие 2) [7A81E241] (AR v1)Трек 17 : извлечено точно (доверие 2) [0734D4C2] (AR v1)Трек 18 : извлечено точно (доверие 2) [7748D7D2] (AR v1)Трек 19 : извлечено точно (доверие 2) [67A5B341] (AR v1)Трек 20 : извлечено точно (доверие 2) [66A597EF] (AR v1)Трек 21 : извлечено точно (доверие 2) [6F6D5D19] (AR v1)Трек 22 : извлечено точно (доверие 2) [545175F3] (AR v1)Трек 23 : извлечено точно (доверие 2) [11BBE196] (AR v1)Трек 24 : извлечено точно (доверие 2) [1507A9D6] (AR v1)Трек 25 : извлечено точно (доверие 2) [A2E3909D] (AR v1)

Все треки извлечены точно

Конец отчёта

==== Контрольная сумма отчёта 8749B7C24C4932D85E4338ABA536BE2511E0AE962DDCCD3A10B182015B9EF2F1 ====


Трекер:  [ 02-Фев-2013 17:14 ]

  

Скачать .torrent

Размер .torrent файла 20 KB


Размер: 256 MB
Хэш (hash) релиза: 6343482a10e8ac2f9cc599d27c8841419b696d40

Еще никто не оставлял запись к записи скачать торрент VA - The Rock n Roll Scene . Будь первым!

!Обратная связь