Скачать через торрент музыку VA - The Best Katz! Of Rockabilly - 1993, FLAC бесплатно без регистрации torrent

Если у вас наблюдаются проблемы со скриншотами, переходом по ссылками, скачиванием торрентов - проблемы в блокировщике рекламы AdBlock. #хорошегоДня!


Статистика раздачи
Размер:  373 MB   |    Зарегистрирован:  4 года 9 месяцев   |    .torrent скачан:  104 раза   |   
Раздают:  1  
   
Загрузка...
 
Автор Сообщение

Galfimbul

avatar Galfimbul


The Best Katz! Of Rockabilly

Жанр: Neo Rockabilly
Страна-производитель диска: Netherlands
Год издания: 1993
Издатель (лейбл): Rockhouse Records
Номер по каталогу: 9321
Страна: Netherlands
Аудиокодек: FLAC (*.flac)
Тип рипа: image+.cue
Битрейт аудио: lossless
Продолжительность: 54:13
Источник (релизер): AUDELAS KINGDOM
Наличие сканов в содержимом раздачи: да
01. Rumble Cats - Gone
02. Square Cats - Sex
03. Hellkats - Do You Need My Knife (Part 3)
04. Stacy Cats - Boogieman
05. Jump Kat Jump - I Won't Stand In Your Way
06. Crocats - Murder In The First Degree
07. Bluecats - Fight Back
08. Washington Dead Cats - Boogie Man
09. Go Katz - Nowhere Train
10. Rumble Cats - Devil Song
11. Square Cats - I've Been Missing You
12. Cottie & The Alleycats - Rebel Ted Rock
13. Alley Cats - Make A Little Lovin'
14. Jump Kat Jump - Let's Go Baby
15. Sun Cats - Wild One
16. Stacy Cats - Never Stop Dreaming
17. Hellkats - Raunchy Tonk
18. Go Katz - Fine Thing Baby
19. Crocats - Good Life In The City
20. Cadcatz Sun Quartet - Your Baby Tonight
21. Restless Cats - Rockin' Rollin' Stone
22. Sun Cats - Rock Boppin' Baby
Exact Audio Copy V1.0 beta 2 from 29. April 2011

Отчёт EAC об извлечении, выполненном 2. февраля 2013, 16:01

Various Artists / The Best Katz! Of Rockabilly

Дисковод: ATAPI iHAS124 B Adapter: 1 ID: 1

Режим чтения : ДостоверностьИспользование точного потока : ДаОтключение кэша аудио : ДаИспользование указателей C2 : Нет

Коррекция смещения при чтении : 6Способность читать области Lead-in и Lead-out : НетЗаполнение пропущенных сэмплов тишиной : ДаУдаление блоков с тишиной в начале и конце : НетПри вычислениях CRC использовались нулевые сэмплы : ДаИнтерфейс : Встроенный Win32-интерфейс для Win NT/2000

Выходной формат : Пользовательский кодировщикВыбранный битрейт : 1024 kBit/sКачество : ВысокийДобавление ID3-тега : НетУтилита сжатия : C:\Program Files\Exact Audio Copy\FLAC\FLAC.EXEДополнительные параметры : -6 -V -T "ARTIST=%artist%" -T "TITLE=%title%" -T "ALBUM=%albumtitle%" -T "DATE=%year%" -T "TRACKNUMBER=%tracknr%" -T "GENRE=%genre%" -T "COMMENT=%comment%" -T "BAND=%albuminterpret%" -T "COMPOSER=%composer%" %haslyrics%--tag-from-

TOC извлечённого CD

Трек | Старт | Длительность | Начальный сектор | Конечный сектор --------------------------------------------------------------------- 1 | 0:00.00 | 4:38.52 | 0 | 20901 2 | 4:38.52 | 2:35.30 | 20902 | 32556 3 | 7:14.07 | 3:26.00 | 32557 | 48006 4 | 10:40.07 | 3:37.35 | 48007 | 64316 5 | 14:17.42 | 3:20.28 | 64317 | 79344 6 | 17:37.70 | 3:20.15 | 79345 | 94359 7 | 20:58.10 | 3:01.22 | 94360 | 107956 8 | 23:59.32 | 3:03.28 | 107957 | 121709 9 | 27:02.60 | 1:48.72 | 121710 | 129881 10 | 28:51.57 | 2:41.55 | 129882 | 142011 11 | 31:33.37 | 2:18.08 | 142012 | 152369 12 | 33:51.45 | 2:45.15 | 152370 | 164759 13 | 36:36.60 | 2:37.40 | 164760 | 176574 14 | 39:14.25 | 2:29.42 | 176575 | 187791 15 | 41:43.67 | 2:25.50 | 187792 | 198716 16 | 44:09.42 | 2:59.33 | 198717 | 212174 17 | 47:09.00 | 2:44.35 | 212175 | 224509 18 | 49:53.35 | 2:28.42 | 224510 | 235651 19 | 52:22.02 | 3:32.23 | 235652 | 251574 20 | 55:54.25 | 2:35.65 | 251575 | 263264 21 | 58:30.15 | 2:32.65 | 263265 | 274729 22 | 61:03.05 | 2:31.30 | 274730 | 286084

Характеристики диапазона извлечения и сообщения об ошибках

Выбранный диапазон

Имя файла D:\Muzika\VA - The Best Katz! Of Rockabilly (1993)\Various Artists - The Best Katz! Of Rockabilly.wav

Пиковый уровень 98.1 % Скорость извлечения 3.4 X Качество диапазона 100.0 % CRC теста 2EC314C0 CRC копии 2EC314C0 Копирование... OK

Ошибок не произошло

AccurateRip: сводка

Трек 1 отсутствует в базе данныхТрек 2 отсутствует в базе данныхТрек 3 отсутствует в базе данныхТрек 4 отсутствует в базе данныхТрек 5 отсутствует в базе данныхТрек 6 отсутствует в базе данныхТрек 7 отсутствует в базе данныхТрек 8 отсутствует в базе данныхТрек 9 отсутствует в базе данныхТрек 10 отсутствует в базе данныхТрек 11 отсутствует в базе данныхТрек 12 отсутствует в базе данныхТрек 13 отсутствует в базе данныхТрек 14 отсутствует в базе данныхТрек 15 отсутствует в базе данныхТрек 16 отсутствует в базе данныхТрек 17 отсутствует в базе данныхТрек 18 отсутствует в базе данныхТрек 19 отсутствует в базе данныхТрек 20 отсутствует в базе данныхТрек 21 отсутствует в базе данныхТрек 22 отсутствует в базе данных

Ни одного трека нет в базе AccurateRip

Конец отчёта

==== Контрольная сумма отчёта 55844140605BF6A7B0A2435B3483C254C905C108076BA72075B7FE112A76FFE9 ====


Трекер:  [ 02-Фев-2013 17:14 ]

  

Скачать .torrent

Размер .torrent файла 15 KB


Размер: 373 MB
Хэш (hash) релиза: 446e677899584a74583d0debc415eb80b84a217b

Еще никто не оставлял запись к записи скачать торрент VA - The Best Katz! Of Rockabilly - 1993, FLAC . Будь первым!

!Обратная связь