Скачать через торрент музыку FreddeGredde - Thirteen Eight бесплатно без регистрации torrent

Если у вас наблюдаются проблемы со скриншотами, переходом по ссылками, скачиванием торрентов - проблемы в блокировщике рекламы AdBlock. #хорошегоДня!


Статистика раздачи
Размер:  517 MB   |    Зарегистрирован:  4 года 9 месяцев   |    .torrent скачан:  128 раз   |   
Раздают:  1  
   
Загрузка...
 
Автор Сообщение

Galfimbul

avatar Galfimbul


FreddeGredde - Thirteen Eight

Жанр: Crossover progressive
Год издания диска: 2011
Издатель (лейбл): White Knight records
Catalog Nr.: CDWK0811
Страна: Sweden
Тип рипа: image+.cue (test&copy)
Битрейт аудио: lossless
Продолжительность: 70:39
Источник: свой рип

Трэклист:

1. Lonely Starlight (5:20)
2. Solace Distant (3:26)
3. Meltdown (4:37)
4. The Star Song (3:14)
5. 4 AM (4:22)
6. The Wayfarer (2:34)
7. Crashing Of Planets (3:02)
8. This Falling World (6:20)
9. Beside Me (4:17)
10. Vampire Bride (4:59)
11. Euphoria (9:09)
12. Stardust (3:55)
13. Time Will Tell (15:17)

Total Time: 70:39

Музыканты

- Fredrik Larsson / guitars, bass, keyboards, accordion, harmonica, vocals
- David Schlein / drums

Доп. информация: Единственный (надеюсь пока) релиз молодого шведского мультиинструменталиста. Существует мнение, что музыка похожа на его земляков A.C.T.
Вполне возможно, что-то общее и есть, но не настолько, чтоб говорить о конкретном сходстве. А вот вокал... Многим не нравится. Обычно, в подобных случаях, говорят, что лучше б молчал.
Однако, позволю себе категорически не согласиться. Да, вокал нельзя назвать образцовым. Но, вы будете смеяться... сильно напоминает знаменитого Тони Бэнкса (Genesis), на его единственном "абсолютном" сольнике The Fugitive (1983), единственном, где он всё сделал сам, да ещё и рискнул спеть. Тот альбом великого клавишника (кстати мне он очень нравится) тоже не снискал успеха у "ценителей", в определённой степени из-за этого самого голоса. У Ларсона, правда, он малость посильнее и поярче, но интонации, манера пения, весьма узнаваемы.
Альбом вышел уже полтора года назад, а в общедоступных местах в нормальном формате, до сих пор, не представлен. Мне очень понравился, посему о покупке диска нисколько не сожалею.
Рекомендую всем, кто ещё не...
Hailing from Gävle, Sweden, FREDDEGREDDE is a solo project by Fredrik LARSSON. The young artist initially rose to prominence in the early days of viral video revolution where his great musicianship gained attention on YouTube and generated millions of views on some of his most popular videos. LARSSON's YouTube channel quickly became the number one subscribed channel in Sweden, but even though his viral video success began to fade over time, FREDDEGREDDE was far from a one-trick pony and late 2009 was when we finally got to hear some of the artist's original material. Video versions of songs "Beside Me" and "The Wayfarer" showed clear tendencies towards an eclectic approach to songwriting and featured rapid shifts from emotionally charged ballads to heavy rock escapades.
It took almost two years for LARSSON to execute his lifelong dream of recording and releasing his debut album, but it's clear that the time was well spent since the 2011 release "Thirteen Eight" is one of those rare debuts that only comes once or twice every decade. Not only has the artist managed to make a clear statement of intent but there is also a clear tendency towards fusing the worlds of art rock and pop music. The material shows a versatile approach which, in return, has potential of appealing just as much to fans of art music as to the casual listener.
Fans of epic compositions will find quite a treat right towards the end of the record with the lengthy tracks "Euphoria" and "Time Will Tell", 9 and 15 minutes respectively. Both of these pieces take the listener on wild journeys through mind-boggling landscapes that will sit especially well with fans of progressive rock music. Highly recommended to fans of melodic music fused with modern progressive rock!
Exact Audio Copy V1.0 beta 3 from 29. August 2011

EAC extraction logfile from 31. January 2013, 22:41

FreddeGredde / Thirteen Eight

Used drive : ASUS DRW-24B1LT Adapter: 4 ID: 0

Read mode : Secure
Utilize accurate stream : Yes
Defeat audio cache : Yes
Make use of C2 pointers : No

Read offset correction : 6
Overread into Lead-In and Lead-Out : No
Fill up missing offset samples with silence : Yes
Delete leading and trailing silent blocks : No
Null samples used in CRC calculations : Yes
Used interface : Native Win32 interface for Win NT & 2000

Used output format : User Defined Encoder
Selected bitrate : 1024 kBit/s
Quality : High
Add ID3 tag : Yes
Command line compressor : C:\Program Files (x86)\FLAC\flac.exe
Additional command line options : -6 -V -T "ARTIST=%artist%" -T "TITLE=%title%" -T "ALBUM=%albumtitle%" -T "DATE=%year%" -T "TRACKNUMBER=%tracknr%" -T "GENRE=%genre%" -T "COMMENT=%comment%" %source% -o %dest%

TOC of the extracted CD

Track | Start | Length | Start sector | End sector
---------------------------------------------------------
1 | 0:00.00 | 5:20.58 | 0 | 24057
2 | 5:20.58 | 3:26.66 | 24058 | 39573
3 | 8:47.49 | 4:37.09 | 39574 | 60357
4 | 13:24.58 | 3:14.50 | 60358 | 74957
5 | 16:39.33 | 4:22.63 | 74958 | 94670
6 | 21:02.21 | 2:34.38 | 94671 | 106258
7 | 23:36.59 | 3:02.30 | 106259 | 119938
8 | 26:39.14 | 6:20.28 | 119939 | 148466
9 | 32:59.42 | 4:17.63 | 148467 | 167804
10 | 37:17.30 | 4:59.15 | 167805 | 190244
11 | 42:16.45 | 9:09.39 | 190245 | 231458
12 | 51:26.09 | 3:55.37 | 231459 | 249120
13 | 55:21.46 | 15:17.27 | 249121 | 317922

Range status and errors

Selected range

Filename Y:\EAC\wurensh\FreddeGredde\FreddeGredde - Thirteen Eight.wav

Peak level 97.7 %
Extraction speed 9.0 X
Range quality 99.9 %
Test CRC F31FEB8C
Copy CRC F31FEB8C
Copy OK

No errors occurred

AccurateRip summary

Track 1 not present in database
Track 2 not present in database
Track 3 not present in database
Track 4 not present in database
Track 5 not present in database
Track 6 not present in database
Track 7 not present in database
Track 8 not present in database
Track 9 not present in database
Track 10 not present in database
Track 11 not present in database
Track 12 not present in database
Track 13 not present in database

None of the tracks are present in the AccurateRip database

End of status report
Коврики 300dpi в комплекте.
Progarchives info

Трекер:  [ 02-Фев-2013 09:48 ]

  

Скачать .torrent

Размер .torrent файла 11 KB


Размер: 517 MB
Хэш (hash) релиза: 04fa50515692fc2a27d14c844840b9637790e447

Еще никто не оставлял запись к записи скачать торрент FreddeGredde - Thirteen Eight . Будь первым!

!Обратная связь