Скачать через торрент [iPad] Дикая природа России-Первозданные долины Wildes Russland-Primeval Valleys бесплатно русская версия torrent активатор

Если у вас наблюдаются проблемы со скриншотами, переходом по ссылками, скачиванием торрентов - проблемы в блокировщике рекламы AdBlock. #хорошегоДня!


Статистика раздачи
Размер:  1.17 GB   |    Зарегистрирован:  4 года 8 месяцев   |    .torrent скачан:  90 раз   |   
Раздают:  1  
   
Загрузка...
 
Автор Сообщение

Galfimbul

avatar Galfimbul


Дикая природа России-Первозданные долины / Wildes Russland-Primeval Valleys

Год выпуска: 2008
Страна: США, Германия
Студия: A Studio Hamburg Produktion
Жанр: Документальный, научно-популярный
Продолжительность: 00:44:39
Перевод: Авторский (одноголосый закадровый) (Владимир Курдов)
Оригинальная аудиодорожка: есть
Cубтитры: русские и английские

Режиссёр: Кристиан Баумейстер, Оливер Гётцль/Christian Baumeister,Oliver Goetzl
Сценарий: Триш Митчелл, Стивен Зорн, Эмбер Левинсон
Продюссер: Дэн Хэббершон-Бутчер, Карл Холл, Джен Хантер

В ролях: Джейсон Хильдебрандт, Пэтерсон Джозеф

Описание:
Совершите путешествие по величественным первозданным лесам Урала. Эти заповедные места известны своими крайностями, где прекрасно соседствуют и олени-великаны, и гигантские левиафаны, весом в полтонны, и крошечные зверьки. Сюда же, в поисках пищи, совершают свои сезонные набеги Евразийские лоси. В отличие от других видов лосей Евразийский лось живет в одиночку, поэтому для беременной самки лося стресс от встречи с другим животным обычно приводит к драке. Как только снег в лесу начинает таять, оголяя землю, одинокие волки отправляются на поиски пищи, не брезгуя останками замерзших животных...

Доп. информация:


Качество исходника: BDRemux - Дикая природа России / Россия от края до края / Wildes Russland / 2009 / АП (Курдов), СТ / Blu-Ray Remux (1080p)
Качество: BDRip
Разрешение: 1024х576
Формат: MP4
Видео: H.264, 16:9 , 3500kbit/s; 23.976fps

Аудио 1: Russian/AVO, AAC, 124kbit/s; 2ch; 48KHz
Аудио 2: English/Original, AAC, 121kbit/s; 2ch; 48KHz
Media Type: MovieXID: Apple:vendor_id:2008-477353Content ID: 477353ScreenWriters: Триш Митчелл, Стивен Зорн, Эмбер ЛевинсонProducers: Дэн Хэббершон-Бутчер, Карл Холл, Джен ХантерDirector: Кристиан Баумейстер, Оливер ГётцльCast: Джейсон Хильдебрандт, Пэтерсон ДжозефRating: UnratedLong Description: Совершите путешествие по величественным первозданным лесам Урала. Эти заповедные места известны своими крайностями, где прекрасно соседствуют и олени-великаны, и гигантские левиафаны, весом в полтонны, и крошечные зверьки. Сюда же, в поисках пищи, совершают свои сезонные набеги Евразийские лоси. В отличие от других видов лосей Евразийский лось живет в одиночку, поэтому для беременной самки лося стресс от встречи с другим животным обычно приводит к драке. Как только снег в лесу начинает таять, оголяя землю, одинокие волки отправляются на поиски пищи, не брезгуя останками замерзших животных...Description: Совершите путешествие по величественным первозданным лесам Урала. Эти заповедные места известны своими крайностями, где прекрасно соседствуют и олени-великаны, и гигантские левиафаны, весом в полтонны, и крошечные зверьки.Release Date: 2008-12-25T07:00:00ZGenre: DocumentaryArtist: Кристиан Баумейстер, Оливер ГётцльName: Дикая природа России-Первозданные долины
ОбщееПолное имя : C:\Handbrake\Первозданные долины .2008.x264.BDRip.1024x.m4vФормат : MPEG-4Идентификатор кодека : M4VРазмер файла : 1,17 ГбайтПродолжительность : 44 м.Режим общего битрейта : ПеременныйОбщий поток : 3759 Кбит/секНазвание фильма : Дикая природа России-Первозданные долиныИсполнитель : Кристиан Баумейстер, Оливер ГётцльЖанр : DocumentaryДата записи : UTC 2008-12-25 07:00:00Дата кодирования : UTC 2013-01-31 19:46:17Дата пометки : UTC 2013-01-31 22:18:39Программа кодирования : MkvToMp4 []www.mkvtomp4.ru] version 0.222Обложка : Yesdesc : Совершите путешествие по величественным первозданным лесам Урала. Эти заповедные места известны своими крайностями, где прекрасно соседствуют и олени-великаны, и гигантские левиафаны, весом в полтонны, и крошечные зверьки.ldes : Совершите путешествие по величественным первозданным лесам Урала. Эти заповедные места известны своими крайностями, где прекрасно соседствуют и олени-великаны, и гигантские левиафаны, весом в полтонны, и крошечные зверьки. Сюда же, в поисках пищи, совершают свои сезонные набеги Евразийские лоси. В отличие от других видов лосей Евразийский лось живет в одиночку, поэтому для беременной самки лося стресс от встречи с другим животным обычно приводит к драке. Как только снег в лесу начинает таять, оголяя землю, одинокие волки отправляются на поиски пищи, не брезгуя останками замерзших животных...hdvd : 0stik : 9akID : -1sfID : 0cnID : 477353xid : Apple:vendor_id:2008-477353iTunEXTC : mpaa|Unrated|600|iTunMOVI : <?xml version="1.0" encoding="UTF-8"?> / <!DOCTYPE plist PUBLIC "-//Apple//DTD PLIST 1.0//EN" "http://www.apple.com/DTDs/PropertyList-1.0.dtd"> / <plist version="1.0"> / <dict> / <key>cast</key> / <array> / <dict> / <key>name</key> / <string>Джейсон Хильдебрандт</string> / </dict> / <dict> / <key>name</key> / <string>Пэтерсон Джозеф</string> / </dict> / </array> / <key>directors</key> / <array> / <dict> / <key>name</key> / <string>Кристиан Баумейстер</string> / </dict> / <dict> / <key>name</key> / <string>Оливер Гётцль</string> / </dict> / </array> / <key>producers</key> / <array> / <dict> / <key>name</key> / <string>Дэн Хэббершон-Бутчер</string> / </dict> / <dict> / <key>name</key> / <string>Карл Холл</string> / </dict> / <dict> / <key>name</key> / <string>Джен Хантер</string> / </dict> / </array> / <key>screenwriters</key> / <array> / <dict> / <key>name</key> / <string>Триш Митчелл</string> / </dict> / <dict> / <key>name</key> / <string>Стивен Зорн</string> / </dict> / <dict> / <key>name</key> / <string>Эмбер Левинсон</string> / </dict> / </array> / </dict> / </plist>

ВидеоИдентификатор : 1Формат : AVCФормат/Информация : Advanced Video CodecПрофиль формата : <a href="mailto:High@L4.0Параметр" class="postLink">High@L4.0Параметр</a> CABAC формата : ДаПараметр ReFrames формата : 9 кадровИдентификатор кодека : avc1Идентификатор кодека/Информация : Advanced Video CodingПродолжительность : 44 м.Битрейт : 3500 Кбит/секМаксимальный битрейт : 16,8 Мбит/секШирина : 1024 пикселяВысота : 576 пикселейСоотношение сторон : 16:9Режим частоты кадров : ПеременныйЧастота кадров : 23,976 кадра/секМинимальная частота кадров : 23,969 кадра/секМаксимальная частота кадров : 23,992 кадра/секЦветовое пространство : YUVСубдискретизация насыщенности : 4:2:0Битовая глубина : 8 битТип развёртки : ПрогрессивнаяБит/(Пиксели*Кадры) : 0.247Размер потока : 1,09 Гбайт (93%)Библиотека кодирования : x264 core 120Настройки программы : cabac=1 / ref=9 / deblock=1:0:0 / analyse=0x3:0x113 / me=umh / subme=9 / psy=1 / psy_rd=1.00:0.00 / mixed_ref=1 / me_range=32 / chroma_me=1 / trellis=1 / 8x8dct=1 / cqm=0 / deadzone=21,11 / fast_pskip=1 / chroma_qp_offset=-2 / threads=12 / sliced_threads=0 / nr=0 / decimate=1 / interlaced=0 / bluray_compat=0 / constrained_intra=0 / bframes=6 / b_pyramid=2 / b_adapt=2 / b_bias=0 / direct=1 / weightb=1 / open_gop=0 / weightp=2 / keyint=240 / keyint_min=24 / scenecut=40 / intra_refresh=0 / rc_lookahead=40 / rc=2pass / mbtree=1 / bitrate=3500 / ratetol=1.0 / qcomp=0.60 / qpmin=3 / qpmax=69 / qpstep=4 / cplxblur=20.0 / qblur=0.5 / ip_ratio=1.40 / aq=1:1.00Язык : EnglishДата кодирования : UTC 2013-01-31 19:46:17Дата пометки : UTC 2013-01-31 19:46:51Основные цвета : BT.709Характеристики трансфера : BT.709Коэффициенты матрицы : BT.709

Аудио #1Идентификатор : 2Формат : AACФормат/Информация : Advanced Audio CodecПрофиль формата : LCИдентификатор кодека : 40Продолжительность : 44 м.Вид битрейта : ПеременныйБитрейт : 124 Кбит/секМаксимальный битрейт : 185 Кбит/секКаналы : 2 каналаРасположение каналов : Front: L RЧастота : 48,0 КГцМетод сжатия : С потерямиРазмер потока : 39,5 Мбайт (3%)Язык : RussianДата кодирования : UTC 2013-01-31 19:46:26Дата пометки : UTC 2013-01-31 19:46:51

Аудио #2Идентификатор : 3Формат : AACФормат/Информация : Advanced Audio CodecПрофиль формата : LCИдентификатор кодека : 40Продолжительность : 44 м.Вид битрейта : ПеременныйБитрейт : 121 Кбит/секМаксимальный битрейт : 183 Кбит/секКаналы : 2 каналаРасположение каналов : Front: L RЧастота : 48,0 КГцМетод сжатия : С потерямиРазмер потока : 38,7 Мбайт (3%)Язык : EnglishДата кодирования : UTC 2013-01-31 19:46:37Дата пометки : UTC 2013-01-31 19:46:51

Текст #1Идентификатор : 4Формат : Timed textРежим смешивания : sbtlИдентификатор кодека : tx3gПродолжительность : 44 м.Вид битрейта : ПеременныйБитрейт : 81 бит/секРазмер потока : 26,2 Кбайт (0%)Язык : RussianДата кодирования : UTC 2013-01-31 19:46:51Дата пометки : UTC 2013-01-31 19:46:51

Текст #2Идентификатор : 5Формат : Timed textРежим смешивания : sbtlИдентификатор кодека : tx3gПродолжительность : 44 м.Вид битрейта : ПеременныйБитрейт : 50 бит/секРазмер потока : 16,1 Кбайт (0%)Язык : EnglishДата кодирования : UTC 2013-01-31 19:46:51Дата пометки : UTC 2013-01-31 19:46:51

Текст #3Идентификатор : 7Формат : Apple textИдентификатор кодека : textПродолжительность : 44 м.Вид битрейта : ПостоянныйБитрейт : 0 бит/секРазмер потока : 138 байт (0%)Дата кодирования : UTC 2013-01-31 22:18:39Дата пометки : UTC 2013-01-31 22:18:39
x264 [info]: frame I:454 Avg QP:15.59 size:148691 PSNR Mean Y:47.38 U:50.84 V:51.44 Avg:48.27 Global:47.73x264 [info]: frame P:19202 Avg QP:18.37 size: 36901 PSNR Mean Y:44.74 U:48.30 V:48.90 Avg:45.59 Global:44.69x264 [info]: frame B:44577 Avg QP:22.34 size: 8880 PSNR Mean Y:43.20 U:47.89 V:48.58 Avg:44.28 Global:43.37x264 [info]: consecutive B-frames: 7.8% 5.3% 10.2% 42.0% 15.6% 15.9% 3.0%x264 [info]: mb I I16..4: 6.0% 60.0% 34.0%x264 [info]: mb P I16..4: 1.3% 6.6% 2.2% P16..4: 39.5% 22.8% 17.5% 0.0% 0.0% skip:10.1%x264 [info]: mb B I16..4: 0.1% 1.0% 0.6% B16..8: 36.9% 9.4% 3.8% direct: 4.5% skip:43.5% L0:37.5% L1:49.2% BI:13.3%x264 [info]: 8x8 transform intra:62.5% inter:59.4%x264 [info]: coded y,uvDC,uvAC intra: 85.5% 78.3% 46.2% inter: 28.4% 24.0% 4.7%x264 [info]: i16 v,h,dc,p: 29% 23% 7% 42%x264 [info]: i8 v,h,dc,ddl,ddr,vr,hd,vl,hu: 6% 11% 3% 10% 15% 13% 16% 11% 16%x264 [info]: i4 v,h,dc,ddl,ddr,vr,hd,vl,hu: 6% 9% 3% 9% 15% 12% 17% 11% 18%x264 [info]: i8c dc,h,v,p: 37% 30% 17% 16%x264 [info]: Weighted P-Frames: Y:4.4% UV:2.0%x264 [info]: ref P L0: 61.3% 13.5% 11.3% 3.9% 3.0% 2.2% 1.9% 1.2% 1.2% 0.3% 0.0%x264 [info]: ref B L0: 86.3% 6.6% 2.9% 1.5% 1.1% 0.9% 0.6% 0.3%x264 [info]: ref B L1: 94.8% 5.2%x264 [info]: SSIM Mean Y:0.9839674 (17.950db)x264 [info]: PSNR Mean Y:43.687 U:48.036 V:48.700 Avg:44.700 Global:43.746 kb/s:3499.47


Трекер:  [ 01-Фев-2013 12:10 ]

  

Скачать .torrent

Размер .torrent файла 12 KB


Размер: 1.17 GB
Хэш (hash) релиза: d3cd4211d35e9d869e92a2b0839ff6e22076dbeb

Еще никто не оставлял запись к записи скачать торрент [iPad] Дикая природа России-Первозданные долины Wildes Russland-Primeval Valleys . Будь первым!

!Обратная связь