Скачать через торрент музыку Deep Purple - Stormbringer {1-st press 20P2-2609} 1988 - 1974, APE бесплатно без регистрации torrent

Если у вас наблюдаются проблемы со скриншотами, переходом по ссылками, скачиванием торрентов - проблемы в блокировщике рекламы AdBlock. #хорошегоДня!


Статистика раздачи
Размер:  257 MB   |    Зарегистрирован:  4 года 8 месяцев   |    .torrent скачан:  156 раз   |   
Раздают:  1  
   
Загрузка...
 
Автор Сообщение

Galfimbul

avatar Galfimbul


Deep Purple / Stormbringer {1-st press 20P2-2609} 1974

Жанр: Hard Rock
Страна-производитель диска: Japan
Год издания: 1988
Издатель (лейбл): WARNER-PIONEER CORPORATION
Номер по каталогу: 20P2-2609
Страна: UK
Аудиокодек: APE (*.ape)
Тип рипа: image+.cue
Битрейт аудио: lossless
Продолжительность: 36:55.95
Источник (релизер): Собственная коллекция
Наличие сканов в содержимом раздачи: да

Треклист:

01. Stormbringer
02. Love Don't Mean A Thing
03. Holy Man
04. Hold On
05. Lady Double Dealer
06. You Can't Do It Right (With The One You Love)
07. High Ball Shooter
08. The Gypsy
09. Soldier Of Fortune
Exact Audio Copy V1.0 beta 3 from 29. August 2011

Отчёт EAC об извлечении, выполненном 31. января 2013, 20:33

Deep Purple / Stormbringer {Japan 20P2-2609}

Дисковод: Optiarc DVD RW AD-7280S Adapter: 1 ID: 0

Режим чтения : ДостоверностьИспользование точного потока : ДаОтключение кэша аудио : ДаИспользование указателей C2 : Нет

Коррекция смещения при чтении : 48Способность читать области Lead-in и Lead-out : НетЗаполнение пропущенных сэмплов тишиной : ДаУдаление блоков с тишиной в начале и конце : НетПри вычислениях CRC использовались нулевые сэмплы : ДаИнтерфейс : Встроенный Win32-интерфейс для Win NT/2000

Выходной формат : Внутренние WAV-операцииФормат сэмплов : 44.100 Гц; 16 бит; стерео

TOC извлечённого CD

Трек | Старт | Длительность | Начальный сектор | Конечный сектор --------------------------------------------------------------------- 1 | 0:00.00 | 4:07.70 | 0 | 18594 2 | 4:07.70 | 4:25.65 | 18595 | 38534 3 | 8:33.60 | 4:31.55 | 38535 | 58914 4 | 13:05.40 | 5:08.27 | 58915 | 82041 5 | 18:13.67 | 3:22.60 | 82042 | 97251 6 | 21:36.52 | 3:26.45 | 97252 | 112746 7 | 25:03.22 | 4:29.33 | 112747 | 132954 8 | 29:32.55 | 4:06.55 | 132955 | 151459 9 | 33:39.35 | 3:16.60 | 151460 | 166219

Характеристики диапазона извлечения и сообщения об ошибках

Выбранный диапазон

Имя файла G:\Deep Purple - Stormbringer {Japan 20P2-2609}\ape\Deep Purple - Stormbringer {Japan 20P2-2609}.wav

Пиковый уровень 99.8 % Скорость извлечения 3.6 X Качество диапазона 100.0 % CRC теста E5674853 CRC копии E5674853 Копирование... OK

Ошибок не произошло

AccurateRip: сводка

Трек 1 : извлечено точно (доверие 3) [9A2BBF8A] (AR v1)Трек 2 : извлечено точно (доверие 3) [74B66B62] (AR v1)Трек 3 : извлечено точно (доверие 3) [54049FAF] (AR v1)Трек 4 : извлечено точно (доверие 3) [1C34F7BF] (AR v1)Трек 5 : извлечено точно (доверие 3) [AA6F369E] (AR v1)Трек 6 : извлечено точно (доверие 3) [4660AF9A] (AR v1)Трек 7 : извлечено точно (доверие 3) [51CBD5A7] (AR v1)Трек 8 : извлечено точно (доверие 3) [ABB65000] (AR v1)Трек 9 : извлечено точно (доверие 3) [6EAA0639] (AR v1)

Все треки извлечены точно

Конец отчёта

==== Контрольная сумма отчёта E4E684D5AC7E7FF65CA1C83C9D976AE430CDD7B1F8C87F2ED2B10FAFEFCCBBAD ====
Lead Guitar - Ritchie Blackmore
Vocals - David Coverdale
Bass Guitar/Vocals - Glen Hughes
Keyboards - Jon Lord
Drums - Ian Paice


Трекер:  [ 31-Янв-2013 23:08 ]

  

Скачать .torrent

Размер .torrent файла 11 KB


Размер: 257 MB
Хэш (hash) релиза: 23356eca82a057f3017cac8821d0dad083e9bcd8

Еще никто не оставлял запись к записи скачать торрент Deep Purple - Stormbringer {1-st press 20P2-2609} 1988 - 1974, APE . Будь первым!

!Обратная связь