Скачать через торрент музыку Sailor - Trouble - 1975 бесплатно без регистрации torrent

Если у вас наблюдаются проблемы со скриншотами, переходом по ссылками, скачиванием торрентов - проблемы в блокировщике рекламы AdBlock. #хорошегоДня!


Статистика раздачи
Размер:  185 MB   |    Зарегистрирован:  4 года 8 месяцев   |    .torrent скачан:  151 раз   |   
Раздают:  1  
   
Загрузка...
 
Автор Сообщение

Galfimbul

avatar Galfimbul


Sailor / Trouble

Жанр: Pop-Rock, Europop
Страна-производитель диска: Japan
Год издания: 1975 (2001 Digitally Remastered)
Издатель (лейбл): Epic Records
Номер по каталогу: ECSA 7861
Страна: UK
Аудиокодек: APE (*.ape)
Тип рипа: image+.cue
Битрейт аудио: lossless
Продолжительность: 30:10.867
Источник (релизер): papulya (x264-bb.com)
Наличие сканов в содержимом раздачи: да

Треклист:
01. Girls, Girls, Girls (3:06)
02. Trouble In Hong Kong (3:12)
03. People In Love (3:33)
04. Coconut (2:28)
05. Jacaranda (2:19)
06. A Glass Of Champagne (2:45)
07. My Kind Of Girl (3:10)
08. Panama (3:29)
09. Stop That Man (3:11)
10. The Old Nickelodeon Sound (2:58)
EAC extraction logfile from 18. February 2009, 22:02 for CDSailor / Trouble

Used drive : aPLEXTOR CD-ROM PX-40TS Adapter: 2 ID: 3Read mode : Secure with NO C2, accurate stream, disable cacheRead offset correction : 676Overread into Lead-In and Lead-Out : Yes

Used output format : Internal WAV Routines 44.100 Hz; 16 Bit; Stereo

Other options : Fill up missing offset samples with silence : Yes Delete leading and trailing silent blocks : No Native Win32 interface for Win NT & 2000

Range status and errorsSelected range Filename D:\ripped_by_ultraplex\sailor-trouble.wav

Peak level 97.3 % Range quality 100.0 % CRC BE9E9761 Copy OK

No errors occured

End of status report
REM DATE 2001PERFORMER "Sailor"TITLE "Trouble"FILE "sailor-trouble.wav" WAVE TRACK 01 AUDIO TITLE "Girls, Girls, Girls" PERFORMER "Sailor" INDEX 01 00:00:00 TRACK 02 AUDIO TITLE "Trouble In Hong Kong" PERFORMER "Sailor" INDEX 00 03:02:70 INDEX 01 03:06:22 TRACK 03 AUDIO TITLE "People In Love" PERFORMER "Sailor" INDEX 00 06:15:25 INDEX 01 06:17:67 TRACK 04 AUDIO TITLE "Coconut" PERFORMER "Sailor" INDEX 00 09:48:22 INDEX 01 09:51:00 TRACK 05 AUDIO TITLE "Jacaranda" PERFORMER "Sailor" INDEX 00 12:15:10 INDEX 01 12:18:50 TRACK 06 AUDIO TITLE "A Glass Of Champagne" PERFORMER "Sailor" INDEX 00 14:34:27 INDEX 01 14:37:65 TRACK 07 AUDIO TITLE "My Kind Of Girl" PERFORMER "Sailor" INDEX 00 17:19:05 INDEX 01 17:22:65 TRACK 08 AUDIO TITLE "Panama" PERFORMER "Sailor" INDEX 00 20:26:35 INDEX 01 20:32:35 TRACK 09 AUDIO TITLE "Stop That Man" PERFORMER "Sailor" INDEX 00 23:58:45 INDEX 01 24:01:57 TRACK 10 AUDIO TITLE "The Old Nickelodeon Sound" PERFORMER "Sailor" INDEX 00 27:09:17 INDEX 01 27:12:47
-----------------------

DON'T MODIFY THIS FILE

-----------------------

PERFORMER: auCDtect Task Manager, ver. 1.5.1RC6 build 1.5.1.7Copyright (c) 2008-2010 y-soft. All rights reservedhttp://y-soft.org

ANALYZER: auCDtect: CD records authenticity detector, version 0.8.2Copyright (c) 2004 Oleg Berngardt. All rights reserved.Copyright (c) 2004 Alexander Djourik. All rights reserved.

FILE: sailor-trouble.ape Size: 183946092 Hash: 7E80B06E06BE78D757DCD0CC92B665BC Accuracy: -m0 Conclusion: CDDA 100% Signature: C9E0D8672FDF886FBA772FCB0CBE55E6CE8CBB06


Трекер:  [ 31-Янв-2013 17:12 ]

  

Скачать .torrent

Размер .torrent файла 15 KB


Размер: 185 MB
Хэш (hash) релиза: 605d73d21d6767d63810cb91005bcca5bc0c5070

Еще никто не оставлял запись к записи скачать торрент Sailor - Trouble - 1975 . Будь первым!

!Обратная связь