Скачать через торрент музыку Michael McDonald - If Thats What It Takes - 1982, FLAC бесплатно без регистрации torrent

Если у вас наблюдаются проблемы со скриншотами, переходом по ссылками, скачиванием торрентов - проблемы в блокировщике рекламы AdBlock. #хорошегоДня!


Статистика раздачи
Размер:  222 MB   |    Зарегистрирован:  4 года 8 месяцев   |    .torrent скачан:  297 раз   |   
Раздают:  1  
   
Загрузка...
 
Автор Сообщение

Galfimbul

avatar Galfimbul


Michael McDonald / If That's What It Takes

Жанр: Soft Rock / Blue-Eyed Soul
Страна-производитель диска: Germany
Год издания: 1982
Издатель (лейбл): Warner Bros. Records
Номер по каталогу: 923 703-2
Страна: USA
Аудиокодек: FLAC (*.flac)
Тип рипа: tracks+.cue
Битрейт аудио: lossless
Продолжительность: 40:32
Источник (релизер): ten321
Наличие сканов в содержимом раздачи: да
Треклист:
01. Playin' By The Rules (McDonald, Ed Sanford)
02. I Keep Forgettin' (Every Time You're Near) (McDonald, Ed Sanford, Jerry Leiber, Mike Stoller)
03. Love Lies (McDonald, Randy Goodrum)
04. I Gotta Try (McDonald, Kenny Loggins)
05. I Can Let Go Now (McDonald)
06. That's Why (McDonald, Randy Goodrum)
07. If That's What It Takes (McDonald, Jackie De Shannon)
08. No Such Luck (McDonald, Grady Walker, Harry Garfield)
09. Losin' End (McDonald)
10. Believe In It (Thea Austin, Benito Benites, Durron Butler, John "Virgo" Garrett III)
Exact Audio Copy V0.99 prebeta 5 from 4. May 2009

EAC extraction logfile from 17. September 2010, 17:12

Michael McDonald / If That's What It Takes

Used drive : TSSTcorpCDDVDW SH-S222A Adapter: 2 ID: 1

Read mode : SecureUtilize accurate stream : YesDefeat audio cache : YesMake use of C2 pointers : No

Read offset correction : 6Overread into Lead-In and Lead-Out : NoFill up missing offset samples with silence : YesDelete leading and trailing silent blocks : NoNull samples used in CRC calculations : YesUsed interface : Native Win32 interface for Win NT & 2000Gap handling : Appended to previous track

Used output format : User Defined EncoderSelected bitrate : 320 kBit/sQuality : HighAdd ID3 tag : NoCommand line compressor : C:\Program Files\FLAC\flac.exeAdditional command line options : -8 -T "artist=%a" -T "title=%t" -T "album=%g" -T "date=%y" -T "tracknumber=%n" -T "genre=%m" %s

TOC of the extracted CD

Track | Start | Length | Start sector | End sector --------------------------------------------------------- 1 | 0:00.32 | 5:00.08 | 32 | 22539 2 | 5:00.40 | 3:43.52 | 22540 | 39316 3 | 8:44.17 | 3:25.03 | 39317 | 54694 4 | 12:09.20 | 3:55.25 | 54695 | 72344 5 | 16:04.45 | 2:56.70 | 72345 | 85614 6 | 19:01.40 | 4:26.37 | 85615 | 105601 7 | 23:28.02 | 4:20.08 | 105602 | 125109 8 | 27:48.10 | 3:48.35 | 125110 | 142244 9 | 31:36.45 | 4:15.25 | 142245 | 161394 10 | 35:51.70 | 4:40.72 | 161395 | 182466

Track 1

Filename Y:\FLAC rips\EAC99\Michael McDonald - If That's What It Takes (1982)\Michael McDonald - If That's What It Takes - 01 - Playin' By The Rules.wav

Pre-gap length 0:00:02.42

Peak level 71.2 % Track quality 100.0 % Test CRC 191A1E8F Copy CRC 191A1E8F Accurately ripped (confidence 6) [3B432C13] Copy OK

Track 2

Filename Y:\FLAC rips\EAC99\Michael McDonald - If That's What It Takes (1982)\Michael McDonald - If That's What It Takes - 02 - I Keep Forgettin' (Every Time You're Near).wav

Pre-gap length 0:00:04.93

Peak level 92.3 % Track quality 100.0 % Test CRC 163F8C93 Copy CRC 163F8C93 Accurately ripped (confidence 6) [25E1464F] Copy OK

Track 3

Filename Y:\FLAC rips\EAC99\Michael McDonald - If That's What It Takes (1982)\Michael McDonald - If That's What It Takes - 03 - Love Lies.wav

Pre-gap length 0:00:03.36

Peak level 90.6 % Track quality 100.0 % Test CRC 35E63E3E Copy CRC 35E63E3E Accurately ripped (confidence 6) [C0F8DF0C] Copy OK

Track 4

Filename Y:\FLAC rips\EAC99\Michael McDonald - If That's What It Takes (1982)\Michael McDonald - If That's What It Takes - 04 - I Gotta Try.wav

Pre-gap length 0:00:04.30

Peak level 78.1 % Track quality 100.0 % Test CRC A098C75F Copy CRC A098C75F Accurately ripped (confidence 6) [A0F26196] Copy OK

Track 5

Filename Y:\FLAC rips\EAC99\Michael McDonald - If That's What It Takes (1982)\Michael McDonald - If That's What It Takes - 05 - I Can Let Go Now.wav

Pre-gap length 0:00:05.04

Peak level 26.7 % Track quality 100.0 % Test CRC 9A443C77 Copy CRC 9A443C77 Accurately ripped (confidence 6) [DD212CF1] Copy OK

Track 6

Filename Y:\FLAC rips\EAC99\Michael McDonald - If That's What It Takes (1982)\Michael McDonald - If That's What It Takes - 06 - That's Why.wav

Pre-gap length 0:00:02.97

Peak level 82.9 % Track quality 100.0 % Test CRC F33E458D Copy CRC F33E458D Accurately ripped (confidence 6) [0B3A8CEA] Copy OK

Track 7

Filename Y:\FLAC rips\EAC99\Michael McDonald - If That's What It Takes (1982)\Michael McDonald - If That's What It Takes - 07 - If That's What It Takes.wav

Pre-gap length 0:00:02.26

Peak level 61.2 % Track quality 100.0 % Test CRC 9F143162 Copy CRC 9F143162 Accurately ripped (confidence 6) [9C5AD88A] Copy OK

Track 8

Filename Y:\FLAC rips\EAC99\Michael McDonald - If That's What It Takes (1982)\Michael McDonald - If That's What It Takes - 08 - No Such Luck.wav

Pre-gap length 0:00:02.86

Peak level 76.6 % Track quality 99.9 % Test CRC EE13DA30 Copy CRC EE13DA30 Accurately ripped (confidence 6) [E712D2E5] Copy OK

Track 9

Filename Y:\FLAC rips\EAC99\Michael McDonald - If That's What It Takes (1982)\Michael McDonald - If That's What It Takes - 09 - Losin' End.wav

Pre-gap length 0:00:03.57

Peak level 58.6 % Track quality 99.9 % Test CRC EAE125B8 Copy CRC EAE125B8 Accurately ripped (confidence 6) [A7A2D3DE] Copy OK

Track 10

Filename Y:\FLAC rips\EAC99\Michael McDonald - If That's What It Takes (1982)\Michael McDonald - If That's What It Takes - 10 - Believe In It.wav

Pre-gap length 0:00:04.37

Peak level 75.5 % Track quality 100.0 % Test CRC D962D8F8 Copy CRC D962D8F8 Accurately ripped (confidence 6) [E34B18F8] Copy OK

All tracks accurately ripped

No errors occurred

End of status report
REM GENRE "Easy Listening"REM DATE 1982REM DISCID 7609800AREM COMMENT "ExactAudioCopy v0.99pb5"FILE "Michael McDonald - If That's What It Takes (1982)\Michael McDonald - If That's What It Takes - 01 - Playin' By The Rules.wav" WAVE TRACK 01 AUDIO PREGAP 00:00:32 INDEX 01 00:00:00 TRACK 02 AUDIO INDEX 00 04:55:13FILE "Michael McDonald - If That's What It Takes (1982)\Michael McDonald - If That's What It Takes - 02 - I Keep Forgettin' (Every Time You're Near).wav" WAVE INDEX 01 00:00:00 TRACK 03 AUDIO INDEX 00 03:40:25FILE "Michael McDonald - If That's What It Takes (1982)\Michael McDonald - If That's What It Takes - 03 - Love Lies.wav" WAVE INDEX 01 00:00:00 TRACK 04 AUDIO INDEX 00 03:20:55FILE "Michael McDonald - If That's What It Takes (1982)\Michael McDonald - If That's What It Takes - 04 - I Gotta Try.wav" WAVE INDEX 01 00:00:00 TRACK 05 AUDIO INDEX 00 03:50:22FILE "Michael McDonald - If That's What It Takes (1982)\Michael McDonald - If That's What It Takes - 05 - I Can Let Go Now.wav" WAVE INDEX 01 00:00:00 TRACK 06 AUDIO INDEX 00 02:53:72FILE "Michael McDonald - If That's What It Takes (1982)\Michael McDonald - If That's What It Takes - 06 - That's Why.wav" WAVE INDEX 01 00:00:00 TRACK 07 AUDIO INDEX 00 04:24:17FILE "Michael McDonald - If That's What It Takes (1982)\Michael McDonald - If That's What It Takes - 07 - If That's What It Takes.wav" WAVE INDEX 01 00:00:00 TRACK 08 AUDIO INDEX 00 04:17:18FILE "Michael McDonald - If That's What It Takes (1982)\Michael McDonald - If That's What It Takes - 08 - No Such Luck.wav" WAVE INDEX 01 00:00:00 TRACK 09 AUDIO INDEX 00 03:44:67FILE "Michael McDonald - If That's What It Takes (1982)\Michael McDonald - If That's What It Takes - 09 - Losin' End.wav" WAVE INDEX 01 00:00:00 TRACK 10 AUDIO INDEX 00 04:10:72FILE "Michael McDonald - If That's What It Takes (1982)\Michael McDonald - If That's What It Takes - 10 - Believe In It.wav" WAVE INDEX 01 00:00:00
AUDIOCHECKER v2.0 beta (build 457) - by Dester - <a href="mailto:opdester@freemail.hu" class="postLink">opdester@freemail.hu</a>~~~~~~~~~~~~~~~~~~~~~~~~~~~~~~~~~~

Начато: понедельник, 28. 01. 2013. - 22:52.30Найдено файлов: 10

01 -===- C:\Documents and Settings\Администратор\Рабочий стол\Michael McDonald - 1982 - If That's What It Takes\01. Playin' By The Rules.wav Заключение: этот трек - MPEG с вероятностью 95%

02 -===- C:\Documents and Settings\Администратор\Рабочий стол\Michael McDonald - 1982 - If That's What It Takes\02. I Keep Forgettin' (Every Time You're Near).wav Заключение: этот трек - CDDA с вероятностью 99%

03 -===- C:\Documents and Settings\Администратор\Рабочий стол\Michael McDonald - 1982 - If That's What It Takes\03. Love Lies.wav Заключение: этот трек - MPEG с вероятностью 95%

04 -===- C:\Documents and Settings\Администратор\Рабочий стол\Michael McDonald - 1982 - If That's What It Takes\04. I Gotta Try.wav Заключение: этот трек - CDDA с вероятностью 100%

05 -===- C:\Documents and Settings\Администратор\Рабочий стол\Michael McDonald - 1982 - If That's What It Takes\05. I Can Let Go Now.wav Заключение: этот трек - CDDA с вероятностью 100%

06 -===- C:\Documents and Settings\Администратор\Рабочий стол\Michael McDonald - 1982 - If That's What It Takes\06. That's Why.wav Заключение: этот трек - CDDA с вероятностью 99%

07 -===- C:\Documents and Settings\Администратор\Рабочий стол\Michael McDonald - 1982 - If That's What It Takes\07. If That's What It Takes.wav Заключение: этот трек - CDDA с вероятностью 100%

08 -===- C:\Documents and Settings\Администратор\Рабочий стол\Michael McDonald - 1982 - If That's What It Takes\08. No Such Luck.wav Заключение: этот трек - CDDA с вероятностью 100%

09 -===- C:\Documents and Settings\Администратор\Рабочий стол\Michael McDonald - 1982 - If That's What It Takes\09. Losin' End.wav Заключение: этот трек - CDDA с вероятностью 99%

10 -===- C:\Documents and Settings\Администратор\Рабочий стол\Michael McDonald - 1982 - If That's What It Takes\10. Believe In It.wav Заключение: этот трек - CDDA с вероятностью 100%

Завершено: понедельник, 28. 01. 2013. - 22:56.56 (Время операции: 0:04.25)
1982 - If That's What It Takes
1985 - No Lookin' Back
1990 - Take It To Heart
1993 - Blink Of An Eye
2000 - Blue Obsession
2003 - Motown
2004 - Motown Two
2008 - Soul Speak
Michael McDonald (born February 12, 1952) is a five-time Grammy Award winning American singer and songwriter. McDonald is known for a soulful baritone singing style and a multi-octave range. He began his career singing back-up vocals with Steely Dan. He became a member of The Doobie Brothers from 1976 to 1982, a period which resulted in several hit songs for the band.

Grammys

1979: Record of the Year for "What a Fool Believes" (The Doobie Brothers)
1979: Song of the Year for "What a Fool Believes" (with Kenny Loggins)
1979: Best Pop Vocal Performance by a Duo, Group or Chorus for "Minute by Minute" (The Doobie Brothers)
1979: Best Arrangement Accompanying Vocals for "What a Fool Believes" (The Doobie Brothers)
1984: Best R&B Performance by a Duo or Group with Vocal for "Yah Mo B There" (with James Ingram)

Michael McDonald
Bass: Willie Weeks (1,3,4,7,9 and 10), Louis Johnson (2), Mike Porcaro (6 and 8)
Drums: Steve Gadd (1,3,4,7,9 and 10), Jeff Porcaro (2,6 and 8)
Guitar: Dean Parks (1,3,7,8 and 9), Steve Lukather (2,4,6,8 and 10), Robben Ford (solo on 6 and 7)
Saxophone: Edgar Winter (solo on 1 and 10), Tom Scott (solo on 6)
Alto saxophone: Edgar Winter (8)
Percussion: Lenny Castro and Bobby LaKind (1), Lenny Castro and Paulinho Da Costa (3), Ted Templeman and Paulinho Da Costa (4), Lenny Castro (6,7,8 and 10)
Piano: Greg Phillinganes (1,3,7,10), Michael McDonald (4,5,6,8)
Clavinet: Greg Phillinganes (2)
Organ: Greg Phillinganes (9)
Fender Rhodes: Michael McDonald (1,2,3,7,9 and 10), Greg Phillinganes (4), Michael Omartian (6 and 7)
Lyricon: Tom Scott (solo on 9)
Background Vocals: Michael McDonald, Ed Sanford, Maureen McDonald, Kenny Loggins, Christopher Cross, Brenda Russell, Kathy Walker, Amy Holland


Трекер:  [ 30-Янв-2013 10:39 ]

  

Скачать .torrent

Размер .torrent файла 37 KB


Размер: 222 MB
Хэш (hash) релиза: 8f7f15a0d61992c4e9940048338433f1b1b6c7cf

Еще никто не оставлял запись к записи скачать торрент Michael McDonald - If Thats What It Takes - 1982, FLAC . Будь первым!

!Обратная связь