Скачать через торрент VA - Старажытны Нясьвіж - 2003 бесплатно русская версия torrent активатор

Если у вас наблюдаются проблемы со скриншотами, переходом по ссылками, скачиванием торрентов - проблемы в блокировщике рекламы AdBlock. #хорошегоДня!


Статистика раздачи
Размер:  359 MB   |    Зарегистрирован:  4 года 8 месяцев   |    .torrent скачан:  97 раз   |   
Раздают:  1  
   
Загрузка...
 
Автор Сообщение

Galfimbul

avatar Galfimbul


VA - Старажытны Нясьвіж

Год: 2003
Страна: Беларусь
Страна-производитель диска: Беларусь
Жанр: Folk
Тип издания: сборник
Наличие сканов в содержимом раздачи: нет
Продолжительность: 00:59:46
Вшитые тексты: не требуются
Кодек: ALAC
Программа-риповщик : EAC (диск)
Битрейт: lossless
Треклист:
01. Tajne Slunce - Велигденско Оро (булгарска)
02. Бiфолк - Добры хлопцы
03. Guda - Наварыў братка пiва
04. Rondellus - Barbara simplex animo (XIV)
05. Drolls - Ja nus hons pris (Richard I Couer-de-Lion XII)
06. Стары Ольса - Шлях
07. Tajne Slunce - Hop cup (словаска)
08. Open Folk - Kesh Jip The Tumpike (trad. Irlandia)
09. Aik - Ой арол, ты арол... (старадаўнi беларускi напеў)
10. Капэля Алеся Лася - Туча
11. Тутэйшая Шляхта - Цёмна ночка
12. Стары Ольса - Выправа (сярэдн. танец)
13. Brevis - Танец
14. Drolls - Null ome per ren (Spain, XIII)
15. Tajne Slunce - Tri jabuke (хорватска)
16. Aik - Арэхава чаша
17. Open Folk - Portanna (trad. Irlandia)
18. Brevis - Brevis
19. Rondellus - Nostra Phalanx (Codex Calixtinus, XII)
20. Guda - А на траваццэ, рано (Купальская)
21. Drolls - Miragres Fremosos (Spain, XIII)
Exact Audio Copy V1.0 beta 3 from 29. August 2011

EAC extraction logfile from 28. January 2013, 0:48

VA / Старажытны Нясьвіж

Used drive : SONY DVD RW DRU-190S Adapter: 2 ID: 0

Read mode : SecureUtilize accurate stream : YesDefeat audio cache : YesMake use of C2 pointers : No

Read offset correction : 6Overread into Lead-In and Lead-Out : NoFill up missing offset samples with silence : YesDelete leading and trailing silent blocks : NoNull samples used in CRC calculations : YesUsed interface : Native Win32 interface for Win NT & 2000

Used output format : User Defined EncoderSelected bitrate : 1024 kBit/sQuality : HighAdd ID3 tag : NoCommand line compressor : E:\Program Files\Exact Audio Copy\Flac\flac.exeAdditional command line options : -V -8 -T "Date=%year%" -T "Genre=%genre%" %source%

TOC of the extracted CD

Track | Start | Length | Start sector | End sector --------------------------------------------------------- 1 | 0:00.00 | 3:06.11 | 0 | 13960 2 | 3:06.11 | 2:52.51 | 13961 | 26911 3 | 5:58.62 | 2:49.72 | 26912 | 39658 4 | 8:48.59 | 1:12.66 | 39659 | 45124 5 | 10:01.50 | 2:39.02 | 45125 | 57051 6 | 12:40.52 | 4:26.03 | 57052 | 77004 7 | 17:06.55 | 3:57.56 | 77005 | 94835 8 | 21:04.36 | 2:12.67 | 94836 | 104802 9 | 23:17.28 | 3:20.34 | 104803 | 119836 10 | 26:37.62 | 2:38.48 | 119837 | 131734 11 | 29:16.35 | 4:36.14 | 131735 | 152448 12 | 33:52.49 | 2:25.07 | 152449 | 163330 13 | 36:17.56 | 1:16.22 | 163331 | 169052 14 | 37:34.03 | 5:20.34 | 169053 | 193086 15 | 42:54.37 | 1:20.30 | 193087 | 199116 16 | 44:14.67 | 3:36.63 | 199117 | 215379 17 | 47:51.55 | 3:38.37 | 215380 | 231766 18 | 51:30.17 | 1:34.51 | 231767 | 238867 19 | 53:04.68 | 3:09.69 | 238868 | 253111 20 | 56:14.62 | 1:35.07 | 253112 | 260243 21 | 57:49.69 | 2:36.39 | 260244 | 271982

Range status and errors

Selected range

Filename E:\Documents and Settings\Я\Рабочий стол\лопата\VA - Старажытны Нясьвіж.wav

Peak level 100.0 % Extraction speed 5.1 X Range quality 99.9 % Test CRC CEEF93C5 Copy CRC CEEF93C5 Copy OK

No errors occurred

End of status report

---- CUETools DB Plugin V2.1.3

[CTDB TOCID: 9Tm_rxtnk5OIDw_D8cfhTFo1g2M-] disk not present in database, Submit result: 9Tm_rxtnk5OIDw_D8cfhTFo1g2M- has been uploaded

==== Log checksum 3641FA9BE0E61AABBD296F5173FB8CCA0E4D01E713EF8D54736409D921962B79 ====
Started at: вторник, 29. 01. 2013. - 15:02.351 file found

1 -===- F:\Music lossless\1\Старажытны Нясьвіж lossless\Various - Старажытны Нясьвіж.flac Extracted successfully Conclusion: this track is CDDA with probability 99% Tempfile successfully deleted.

Finished at: вторник, 29. 01. 2013. - 15:05.45 (operation time: 0:03.10)


Трекер:  [ 29-Янв-2013 17:11 ]

  

Скачать .torrent

Размер .torrent файла 16 KB


Размер: 359 MB
Хэш (hash) релиза: cdad7088cf7b6d50fa56f3cf6be67aac44d02f24

Еще никто не оставлял запись к записи скачать торрент VA - Старажытны Нясьвіж - 2003 . Будь первым!

!Обратная связь