Скачать через торрент музыку Jordi Kuragari - Traveller бесплатно без регистрации torrent

Если у вас наблюдаются проблемы со скриншотами, переходом по ссылками, скачиванием торрентов - проблемы в блокировщике рекламы AdBlock. #хорошегоДня!


Статистика раздачи
Размер:  393 MB   |    Зарегистрирован:  4 года 9 месяцев   |    .torrent скачан:  28 раз   |   
Раздают:  1  
   
Загрузка...
 
Автор Сообщение

Galfimbul

avatar Galfimbul


Jordi Kuragari - Traveller

Жанр: Progressive rock
Страна-производитель диска: Germany
Год выпуска диска: 2012
Label: CorleeMadMusic
Catalog Nr.: cmm2012001
Аудио кодек: FLAC
Тип рипа: image+.cue (test&copy)
Битрейт аудио: lossless
Источник (релизер): свой рип
Продолжительность: 64:14

Трэклист:

1. Anywhere But Here (5:46)
2. Just Like A Puppet (3:20)
3. I Didn't Mind (3:51)
4. Under My Umbrella (4:55)
5. Bounced (4:13)
6. What Are You Thinking (3:52)
7. London Traveller (4:14)
8. The Darkest Night (4:02)
9. On My Own (4:12)
10. Kodama (4:14)
11. Faith Is A Journey (5:17)
12. In These Woods (4:35)
13. Let It Go (5:51)
14. Hotaru (5:50)

Total time: 64:14

Музыканты:

- all tracks written, arranged and played by Jordi Kuragari

Об альбоме: Дебютный сольный альбом малоизвестного немецкого прог-музыканта, мультиинструменталиста из Берлина, гитариста проекта Generat.
Альбом довольно интересный и, скорее всего, должен понравиться, как любителям прогрессивной музыки в стиле великих Пинк Флойд, так и гораздо более широкому кругу.
Exact Audio Copy V1.0 beta 3 from 29. August 2011

EAC extraction logfile from 17. January 2013, 0:04

Jordi Kuragari / Traveller

Used drive : TEAC CD-W516EB Adapter: 0 ID: 0

Read mode : Secure
Utilize accurate stream : Yes
Defeat audio cache : Yes
Make use of C2 pointers : No

Read offset correction : 685
Overread into Lead-In and Lead-Out : No
Fill up missing offset samples with silence : Yes
Delete leading and trailing silent blocks : No
Null samples used in CRC calculations : Yes
Used interface : Native Win32 interface for Win NT & 2000

Used output format : User Defined Encoder
Selected bitrate : 1024 kBit/s
Quality : High
Add ID3 tag : Yes
Command line compressor : C:\Program Files (x86)\FLAC\flac.exe
Additional command line options : -6 -V -T "ARTIST=%artist%" -T "TITLE=%title%" -T "ALBUM=%albumtitle%" -T "DATE=%year%" -T "TRACKNUMBER=%tracknr%" -T "GENRE=%genre%" -T "COMMENT=%comment%" %source% -o %dest%

TOC of the extracted CD

Track | Start | Length | Start sector | End sector
---------------------------------------------------------
1 | 0:00.00 | 5:45.56 | 0 | 25930
2 | 5:45.56 | 3:20.00 | 25931 | 40930
3 | 9:05.56 | 3:51.37 | 40931 | 58292
4 | 12:57.18 | 4:54.56 | 58293 | 80398
5 | 17:51.74 | 4:13.00 | 80399 | 99373
6 | 22:04.74 | 3:52.37 | 99374 | 116810
7 | 25:57.36 | 4:14.37 | 116811 | 135897
8 | 30:11.73 | 4:02.00 | 135898 | 154047
9 | 34:13.73 | 4:12.00 | 154048 | 172947
10 | 38:25.73 | 4:14.00 | 172948 | 191997
11 | 42:39.73 | 5:17.37 | 191998 | 215809
12 | 47:57.35 | 4:35.00 | 215810 | 236434
13 | 52:32.35 | 5:51.37 | 236435 | 262796
14 | 58:23.72 | 5:50.00 | 262797 | 289046

Range status and errors

Selected range

Filename Y:\EAC\wurensh\Jordi Kuragari\Jordi Kuragari - Traveller.wav

Peak level 99.5 %
Extraction speed 7.9 X
Range quality 100.0 %
Test CRC 2D5F71B5
Copy CRC 2D5F71B5
Copy OK

No errors occurred

AccurateRip summary

Track 1 not present in database
Track 2 not present in database
Track 3 not present in database
Track 4 not present in database
Track 5 not present in database
Track 6 not present in database
Track 7 not present in database
Track 8 not present in database
Track 9 not present in database
Track 10 not present in database
Track 11 not present in database
Track 12 not present in database
Track 13 not present in database
Track 14 not present in database

None of the tracks are present in the AccurateRip database

End of status report
В данном случае, мы снова сталкиваемся с изданием на CD материала, мягко говоря, не соответствующего возможностям носителя.
Ни один трек по результатам анализа не является CDDA, везде имеется характерный срез на уровне от 15 до 20 кГц. Альбом с полной уверенностью можно считать self-releas'ом, но изданным очень качественно, полноценный буклет и нормальный блин с матрицей (не CD-R). Последнее время слишком часто приходится сталкиваться с self-released CD, которые распознаются как MPEG. Я не понимаю, зачем музыканты так делают, но факт налицо. Примеры уже приводились здесь и здесь.
Ввиду вышеизложенного, просьба к любителям спектрограмм и резких суждений по вопросу качества звука, воздержаться от необдуманных комментариев.
Oficial Website

Коврики 300dpi в комплекте.

Трекер:  [ 28-Янв-2013 10:26 ]

  

Скачать .torrent

Размер .torrent файла 16 KB


Размер: 393 MB
Хэш (hash) релиза: b3f35e39a6486e95d458fd4a0812e4854b08f799

Торренты, похожие на Jordi Kuragari - Traveller скачать торрент

Форум Название Автор Размер S L Добавлен
Зарубежный Rock ·· (Progressive Rock) Jordi Kuragari - Traveller - 2012, MP3, 320 kbps Galfimbul 184398450176 MB 0 0 1359468120

17:02

29-Янв-13

Еще никто не оставлял запись к записи скачать торрент Jordi Kuragari - Traveller . Будь первым!

!Обратная связь