Скачать через торрент музыку Pink Cream 69 - Ceremonial - 2013, FLAC бесплатно без регистрации torrent

Если у вас наблюдаются проблемы со скриншотами, переходом по ссылками, скачиванием торрентов - проблемы в блокировщике рекламы AdBlock. #хорошегоДня!


Статистика раздачи
Размер:  374 MB   |    Зарегистрирован:  4 года 9 месяцев   |    .torrent скачан:  28 раз   |   
Раздают:  1  
   
Загрузка...
 
Автор Сообщение

Galfimbul

avatar Galfimbul


Pink Cream 69 - Ceremonial


Жанр: Melodic Hard Rock
Страна-производитель диска: Italy
Год издания: 2013
Издатель (лейбл): Frontiers Records
Номер по каталогу: FR CD 585
Страна: Germany
Аудиокодек: FLAC (*.flac)
Тип рипа: image+.cue
Битрейт аудио: lossless
Продолжительность: 00:49:43
Источник (релизер): kikel
Наличие сканов в содержимом раздачи: да



01 - Land Of Confusion [00:04:41]
02 - Wasted Years [00:03:56]
03 - Special [00:04:03]
04 - Find Your Soul [00:03:43]
05 - The Tide [00:04:15]
06 - Big Machine [00:04:02]
07 - Let The Thunder Roll [00:03:40]
08 - Right From Wrong [00:03:35]
09 - Passage Of Time [00:04:29]
10 - I Came To Rock [00:04:32]
11 - King For One Day [00:04:08]
12 - Superman [00:04:35]

Exact Audio Copy V0.99 prebeta 5 from 4. May 2009

Отчёт EAC об извлечении, выполненном 27. января 2013, 1:25

Pink Cream 69 / Ceremonial

Дисковод: HL-DT-STDVDRAM GU40N Adapter: 0 ID: 1

Режим чтения : Скоростной

Коррекция смещения при чтении : 0Способность читать области Lead-in и Lead-out : НетЗаполнение пропущенных сэмплов тишиной : ДаУдаление блоков с тишиной в начале и конце : НетПри вычислениях CRC использовались нулевые сэмплы : НетИнтерфейс : Встроенный Win32-интерфейс для Win NT/2000

Выходной формат : Внутренние WAV-операцииФормат сэмплов : 44.100 Гц; 16 бит; стерео

TOC извлечённого CD

Трек | Старт | Длительность | Начальный сектор | Конечный сектор --------------------------------------------------------------------- 1 | 0:00.00 | 4:41.38 | 0 | 21112 2 | 4:41.38 | 3:55.71 | 21113 | 38808 3 | 8:37.34 | 4:03.41 | 38809 | 57074 4 | 12:41.00 | 3:43.46 | 57075 | 73845 5 | 16:24.46 | 4:15.48 | 73846 | 93018 6 | 20:40.19 | 4:02.05 | 93019 | 111173 7 | 24:42.24 | 3:40.01 | 111174 | 127674 8 | 28:22.25 | 3:35.04 | 127675 | 143803 9 | 31:57.29 | 4:29.12 | 143804 | 163990 10 | 36:26.41 | 4:32.22 | 163991 | 184412 11 | 40:58.63 | 4:08.22 | 184413 | 203034 12 | 45:07.10 | 4:35.08 | 203035 | 223667

Характеристики диапазона извлечения и сообщения об ошибках

Выбранный диапазон

Имя файла C:\Users\workutagin\Desktop\Neuer Ordner\Pink Cream 69 - Ceremonial.wav

Пиковый уровень 100.0 % CRC теста 7CC7082C CRC копии 7CC7082C Копирование... OK

Ошибок не произошло

Конец отчёта
REM GENRE "Heavy Metal"REM DATE 2013REM DISCID B00BA60CREM COMMENT "ExactAudioCopy v0.99pb5"PERFORMER "Pink Cream 69"TITLE "Ceremonial "FILE "Pink Cream 69 - Ceremonial.wav" WAVE TRACK 01 AUDIO TITLE "01 - Land Of Confusion" PERFORMER "Pink Cream 69" INDEX 01 00:00:00 TRACK 02 AUDIO TITLE "02 - Wasted Years" PERFORMER "Pink Cream 69" INDEX 01 04:41:38 TRACK 03 AUDIO TITLE "03 - Special" PERFORMER "Pink Cream 69" INDEX 00 08:36:52 INDEX 01 08:37:34 TRACK 04 AUDIO TITLE "04 - Find Your Soul" PERFORMER "Pink Cream 69" INDEX 00 12:38:69 INDEX 01 12:41:00 TRACK 05 AUDIO TITLE "05 - The Tide" PERFORMER "Pink Cream 69" INDEX 00 16:23:21 INDEX 01 16:24:46 TRACK 06 AUDIO TITLE "06 - Big Machine" PERFORMER "Pink Cream 69" INDEX 00 20:37:70 INDEX 01 20:40:19 TRACK 07 AUDIO TITLE "07 - Let The Thunder Roll" PERFORMER "Pink Cream 69" INDEX 00 24:41:26 INDEX 01 24:42:24 TRACK 08 AUDIO TITLE "08 - Right From Wrong" PERFORMER "Pink Cream 69" INDEX 00 28:20:34 INDEX 01 28:22:25 TRACK 09 AUDIO TITLE "09 - Passage Of Time" PERFORMER "Pink Cream 69" INDEX 00 31:55:34 INDEX 01 31:57:29 TRACK 10 AUDIO TITLE "10 - I Came To Rock" PERFORMER "Pink Cream 69" INDEX 00 36:24:38 INDEX 01 36:26:41 TRACK 11 AUDIO TITLE "11 - King For One Day" PERFORMER "Pink Cream 69" INDEX 00 40:57:11 INDEX 01 40:58:63 TRACK 12 AUDIO TITLE "12 - Superman" PERFORMER "Pink Cream 69" INDEX 00 45:04:50 INDEX 01 45:07:10
-----------------------

DON'T MODIFY THIS FILE

-----------------------

PERFORMER: auCDtect Task Manager, ver. 1.5.1RC6 build 1.5.1.7Copyright (c) 2008-2010 y-soft. All rights reservedhttp://y-soft.org

ANALYZER: auCDtect: CD records authenticity detector, version 0.8.2Copyright (c) 2004 Oleg Berngardt. All rights reserved.Copyright (c) 2004 Alexander Djourik. All rights reserved.

FILE: Pink Cream 69 - Ceremonial.flac Size: 388424212 Hash: ABD46BDA742C9824188F36408C1F6EC8 Accuracy: -m0 Conclusion: CDDA 100% Signature: 3DB3C678D9D62131E5640D1D03EDCC07F4412B75


Трекер:  [ 27-Янв-2013 17:47 ]

  

Скачать .torrent

Размер .torrent файла 15 KB


Размер: 374 MB
Хэш (hash) релиза: f51e43cb2e8193df9ae5f34ad98e1b825729aab4

Еще никто не оставлял запись к записи скачать торрент Pink Cream 69 - Ceremonial - 2013, FLAC . Будь первым!

!Обратная связь