Скачать через торрент [iPad] Cлoвa Тhе Wоrds бесплатно русская версия torrent активатор

Если у вас наблюдаются проблемы со скриншотами, переходом по ссылками, скачиванием торрентов - проблемы в блокировщике рекламы AdBlock. #хорошегоДня!


Статистика раздачи
Размер:  1.76 GB   |    Зарегистрирован:  4 года 8 месяцев   |    .torrent скачан:  47 раз   |   
Раздают:  1  
   
Загрузка...
 
Автор Сообщение

Galfimbul

avatar Galfimbul


Cлoвa / Тhе Wоrds

«There's more than one way to take a life.»

Год выпуска: 2012
Страна: США
Студия: Also Known As Pictures, Animus Films, Benaroya Pictures, Serena Films, Waterfall Media
Жанр: Драма, мелодрама
Продолжительность: 01:42:41
Рейтинг MPAA: PG-13
Перевод : Дублированный
Оригинальная аудиодорожка: есть
Cубтитры: русские и английские

Режиссёр: Бpaйaн Kлaгмaн, Ли Cтepнтaл/ Вriаn Кlugmаn, Lее Stеrnthаl
Сценарий: Бpaйaн Kлaгмaн, Ли Cтepнтaл
Продюссер: Майкл Бенаройя, Татьяна Келли, Джеймс М. Янг

В ролях: Брэдли Купер, Джереми Айронс, Оливия Уайлд, Зои Салдана, Деннис Куэйд, Брайан Клагман, Джон Ханна, Вито Филлипо, Майкл МакКин, Люсинда Дэвис

Описание:
Рори Джэнсен — писатель, который наконец обретает долгожданную известность, но его роман-бестселлер оказывается написан другим человеком, которому он теперь должен заплатить высокую цену за украденные у него жизнь и работу.

Доп. информация:


Качество исходника: BDRemux - Слова / The Words / 2012 / ЛО / Blu-Ray Remux (1080p)
Качество: BDRip
Разрешение: 1024х544
Формат: MP4
Видео: H.264, 1.882, 2200kbit/s; 23.976fps

Аудио 1: Russian/Dub, AAC, 132kbit/s; 2ch; 48KHz
Аудио 2: English/Original, AAC, 126kbit/s; 2ch; 48KHz
XID: Apple:vendor_id:2012-580639contentID: 580373798Screenwriters: Брайан Клагман, Ли СтернталProducers: Майкл Бенаройя, Татьяна Келли, Джеймс М. ЯнгDirector: Брайан Клагман, Ли СтернталCast: Брэдли Купер, Джереми Айронс, Оливия Уайлд, Зои Салдана, Деннис Куэйд, Брайан Клагман, Джон Ханна, Вито Филлипо, Майкл МакКин, Люсинда ДэвисRating: 4Long Description: Рори Джэнсен — писатель, который наконец обретает долгожданную известность, но его роман-бестселлер оказывается написан другим человеком, которому он теперь должен заплатить высокую цену за украденные у него жизнь и работу.Description: Рори Джэнсен — писатель, который наконец обретает долгожданную известность.Release Date: 2012-01-27T15:00:00ZGenre: DramaArtist: Брайан Клагман, Ли СтернталName: Слова
GeneralComplete name : /Users/imac/HandBrake/The Words.2012.x264.BDRip.1024x.m4vFormat : MPEG-4Codec ID : M4VFile size : 1.76 GiBDuration : 1h 42mnOverall bit rate mode : VariableOverall bit rate : 2 460 KbpsMovie name : СловаPerformer : Брайан Клагман, Ли СтернталGenre : DramaRecorded date : UTC 2012-01-27 15:00:00Encoded date : UTC 2013-01-27 09:27:36Tagged date : UTC 2013-01-27 09:28:34Cover : Yesdesc : Рори Джэнсен — писатель, который наконец обретает долгожданную известность.ldes : Рори Джэнсен — писатель, который наконец обретает долгожданную известность, но его роман-бестселлер оказывается написан другим человеком, которому он теперь должен заплатить высокую цену за украденные у него жизнь и работу.stik : 9rtng : 0cnID : 580373798xid : Apple:vendor_id:2012-580639iTunEXTC : mpaa|PG-13|300|iTunMOVI : <?xml version="1.0" encoding="UTF-8"?> / <!DOCTYPE plist PUBLIC "-//Apple//DTD PLIST 1.0//EN" "http://www.apple.com/DTDs/PropertyList-1.0.dtd"> / <plist version="1.0"> / <dict> / <key>cast</key> / <array> / <dict> / <key>name</key> / <string> Брэдли Купер</string> / </dict> / <dict> / <key>name</key> / <string>Джереми Айронс</string> / </dict> / <dict> / <key>name</key> / <string>Оливия Уайлд</string> / </dict> / <dict> / <key>name</key> / <string>Зои Салдана</string> / </dict> / <dict> / <key>name</key> / <string>Деннис Куэйд</string> / </dict> / <dict> / <key>name</key> / <string>Брайан Клагман</string> / </dict> / <dict> / <key>name</key> / <string>Джон Ханна</string> / </dict> / <dict> / <key>name</key> / <string>Вито Филлипо</string> / </dict> / <dict> / <key>name</key> / <string>Майкл МакКин</string> / </dict> / <dict> / <key>name</key> / <string>Люсинда Дэвис</string> / </dict> / </array> / <key>directors</key> / <array> / <dict> / <key>name</key> / <string>Брайан Клагман</string> / </dict> / <dict> / <key>name</key> / <string>Ли Стернтал</string> / </dict> / </array> / <key>producers</key> / <array> / <dict> / <key>name</key> / <string>Майкл Бенаройя</string> / </dict> / <dict> / <key>name</key> / <string>Татьяна Келли</string> / </dict> / <dict> / <key>name</key> / <string>Джеймс М. Янг</string> / </dict> / </array> / <key>screenwriters</key> / <array> / <dict> / <key>name</key> / <string>Брайан Клагман</string> / </dict> / <dict> / <key>name</key> / <string>Ли Стернтал</string> / </dict> / </array> / </dict> / </plist>

Video #1ID : 1Format : AVCFormat/Info : Advanced Video CodecFormat profile : <a href="mailto:High@L3.2Format" class="postLink">High@L3.2Format</a> settings, CABAC : YesFormat settings, ReFrames : 9 framesCodec ID : avc1Codec ID/Info : Advanced Video CodingDuration : 1h 42mnBit rate mode : VariableBit rate : 2 200 KbpsWidth : 1 024 pixelsHeight : 544 pixelsDisplay aspect ratio : 1.882Frame rate mode : VariableFrame rate : 23.976 fpsMinimum frame rate : 23.810 fpsMaximum frame rate : 24.246 fpsColor space : YUVChroma subsampling : 4:2:0Bit depth : 8 bitsScan type : ProgressiveBits/(Pixel*Frame) : 0.165Stream size : 1.57 GiB (89%)Writing library : x264 core 120Encoding settings : cabac=1 / ref=9 / deblock=1:0:0 / analyse=0x3:0x113 / me=umh / subme=9 / psy=1 / psy_rd=1.00:0.00 / mixed_ref=1 / me_range=32 / chroma_me=1 / trellis=1 / 8x8dct=1 / cqm=0 / deadzone=21,11 / fast_pskip=1 / chroma_qp_offset=-2 / threads=12 / sliced_threads=0 / nr=0 / decimate=1 / interlaced=0 / bluray_compat=0 / constrained_intra=0 / bframes=6 / b_pyramid=2 / b_adapt=2 / b_bias=0 / direct=1 / weightb=1 / open_gop=0 / weightp=2 / keyint=240 / keyint_min=24 / scenecut=40 / intra_refresh=0 / rc_lookahead=40 / rc=2pass / mbtree=1 / bitrate=2200 / ratetol=1.0 / qcomp=0.60 / qpmin=3 / qpmax=69 / qpstep=4 / cplxblur=20.0 / qblur=0.5 / ip_ratio=1.40 / aq=1:1.00Language : EnglishEncoded date : UTC 2013-01-27 09:27:37Tagged date : UTC 2013-01-27 09:28:08Color primaries : BT.709-5, BT.1361, IEC 61966-2-4, SMPTE RP177Transfer characteristics : BT.709-5, BT.1361Matrix coefficients : BT.709-5, BT.1361, IEC 61966-2-4 709, SMPTE RP177

Video #2ID : 6Format : JPEGCodec ID : jpegDuration : 1h 42mnBit rate mode : VariableBit rate : 1 086 bpsWidth : 640 pixelsHeight : 340 pixelsDisplay aspect ratio : 1.882Frame rate mode : VariableFrame rate : 0.003 fpsMinimum frame rate : 0.001 fpsMaximum frame rate : 0.005 fpsColor space : YUVChroma subsampling : 4:2:0Bit depth : 8 bitsCompression mode : LossyBits/(Pixel*Frame) : 1.664Stream size : 707 KiB (0%)Language : EnglishEncoded date : UTC 2013-01-27 09:27:37Tagged date : UTC 2013-01-27 09:28:34

Audio #1ID : 2Format : AACFormat/Info : Advanced Audio CodecFormat profile : LCCodec ID : 40Duration : 1h 42mnBit rate mode : VariableBit rate : 132 KbpsMaximum bit rate : 226 KbpsChannel(s) : 2 channelsChannel positions : Front: L RSampling rate : 48.0 KHzCompression mode : LossyStream size : 95.4 MiB (5%)Language : RussianEncoded date : UTC 2013-01-27 09:27:37Tagged date : UTC 2013-01-27 09:28:13

Audio #2ID : 3Format : AACFormat/Info : Advanced Audio CodecFormat profile : LCCodec ID : 40Duration : 1h 42mnBit rate mode : VariableBit rate : 126 KbpsMaximum bit rate : 184 KbpsChannel(s) : 2 channelsChannel positions : Front: L RSampling rate : 48.0 KHzCompression mode : LossyStream size : 92.7 MiB (5%)Language : EnglishEncoded date : UTC 2013-01-27 09:27:37Tagged date : UTC 2013-01-27 09:28:33

Text #1ID : 4Format : Timed textMuxing mode : sbtlCodec ID : tx3gDuration : 1h 35mnBit rate mode : VariableBit rate : 94 bpsStream size : 65.8 KiB (0%)Language : RussianEncoded date : UTC 2013-01-27 09:27:37Tagged date : UTC 2013-01-27 09:28:34

Text #2ID : 5Format : Timed textMuxing mode : sbtlCodec ID : tx3gDuration : 1h 35mnBit rate mode : VariableBit rate : 55 bpsStream size : 38.3 KiB (0%)Language : EnglishEncoded date : UTC 2013-01-27 09:27:37Tagged date : UTC 2013-01-27 09:28:34

Text #3ID : 7Format : Apple textCodec ID : textDuration : 1h 42mnBit rate mode : ConstantBit rate : 1 bpsStream size : 416 Bytes (0%)Language : EnglishEncoded date : UTC 2013-01-27 09:28:34Tagged date : UTC 2013-01-27 09:28:34

Menu00:00:00.000 : 00:00:00.00000:03:58.071 : 00:03:57.98800:08:39.227 : 00:08:39.14400:14:33.539 : 00:14:33.45600:19:25.706 : 00:19:25.62300:25:24.064 : 00:25:23.98100:31:36.311 : 00:31:36.22800:34:43.247 : 00:34:43.16400:41:16.806 : 00:41:16.72400:45:40.861 : 00:45:40.78000:50:32.777 : 00:50:32.69600:56:45.649 : 00:56:45.56901:04:45.336 : 01:04:45.25601:11:44.129 : 01:11:44.05001:19:55.995 : 01:19:55.91601:28:32.636 : 01:28:32.557
x264 [info]: frame I:1004 Avg QP:15.55 size: 81130 PSNR Mean Y:47.38 U:51.00 V:51.25 Avg:48.28 Global:47.58x264 [info]: frame P:28990 Avg QP:18.11 size: 25707 PSNR Mean Y:45.57 U:50.67 V:50.97 Avg:46.68 Global:45.52x264 [info]: frame B:117723 Avg QP:20.67 size: 7337 PSNR Mean Y:43.83 U:50.04 V:50.30 Avg:45.07 Global:44.23x264 [info]: consecutive B-frames: 0.9% 0.7% 3.6% 26.1% 15.0% 26.8% 26.9%x264 [info]: mb I I16..4: 9.1% 75.8% 15.1%x264 [info]: mb P I16..4: 0.5% 6.0% 1.0% P16..4: 37.8% 27.3% 16.5% 0.0% 0.0% skip:11.0%x264 [info]: mb B I16..4: 0.0% 0.5% 0.1% B16..8: 46.7% 9.9% 2.3% direct: 3.2% skip:37.3% L0:46.8% L1:48.3% BI: 4.8%x264 [info]: 8x8 transform intra:80.3% inter:69.2%x264 [info]: coded y,uvDC,uvAC intra: 94.1% 76.2% 46.1% inter: 29.0% 16.2% 1.1%x264 [info]: i16 v,h,dc,p: 38% 15% 9% 38%x264 [info]: i8 v,h,dc,ddl,ddr,vr,hd,vl,hu: 8% 6% 3% 11% 17% 16% 15% 12% 12%x264 [info]: i4 v,h,dc,ddl,ddr,vr,hd,vl,hu: 7% 6% 2% 10% 17% 16% 15% 13% 13%x264 [info]: i8c dc,h,v,p: 39% 24% 20% 16%x264 [info]: Weighted P-Frames: Y:7.4% UV:1.0%x264 [info]: ref P L0: 42.3% 10.1% 19.7% 7.0% 6.9% 4.4% 4.7% 2.2% 2.6% 0.1% 0.0%x264 [info]: ref B L0: 65.9% 14.5% 7.7% 4.3% 3.1% 2.8% 1.3% 0.4%x264 [info]: ref B L1: 90.2% 9.8%x264 [info]: SSIM Mean Y:0.9693844 (15.141db)x264 [info]: PSNR Mean Y:44.200 U:50.169 V:50.442 Avg:45.407 Global:44.470 kb/s:2194.99


Трекер:  [ 27-Янв-2013 17:43 ]

  

Скачать .torrent

Размер .torrent файла 35 KB


Размер: 1.76 GB
Хэш (hash) релиза: d8c14b72392474af546e21145af23a0116c04840

Еще никто не оставлял запись к записи скачать торрент [iPad] Cлoвa Тhе Wоrds . Будь первым!

!Обратная связь