..."/> ...">

Скачать через торрент музыку Kasia Kowalska - Antepenultimate - 2008, FLAC бесплатно без регистрации torrent

Если у вас наблюдаются проблемы со скриншотами, переходом по ссылками, скачиванием торрентов - проблемы в блокировщике рекламы AdBlock. #хорошегоДня!


Статистика раздачи
Размер:  341 MB   |    Зарегистрирован:  4 года 9 месяцев   |    .torrent скачан:  42 раза   |   
Раздают:  1  
   
Загрузка...
 
Автор Сообщение

Galfimbul

avatar Galfimbul


Kasia Kowalska / Antepenultimate

Жанр: Pop/Rock
Год издания: 2008
Страна: Польша
Аудиокодек: FLAC (*.flac)
Тип рипа: tracks+.cue
Битрейт аудио: lossless
Продолжительность: 46:02
Источник (релизер): Интернет
Наличие сканов в содержимом раздачи: да
Треклист:
01 "Miłość, trzeźwość i pokora" (muz. J. Runowski, sł. K. Kowalska) 4:04
02 "Baby blues" (muz. J. Runowski, sł. K. Kowalska) 4:26
03 "A Ty, czego chcesz?" (muz. J. Runowski, sł. K. Kowalska) 3:42
04 "Jak słońca promień" (muz. A. Krylik, sł. K. Kowalska) 3:51
05 "Jeden dzień szczęścia" (muz. J. Runowski, sł. K. Kowalska) 4:56
06 "Niewzruszony" (muz. K. Rose, T. Lassen, sł. K. Kowalska) 3:41
07 "Maskarada" (muz. J. Runowski, J. Wąsowski, sł. K. Kowalska) 3:46
08 "Anhedonia" (muz. J. Runowski, sł. K. Kowalska) 2:50
09 "Spowiedź" (muz. J. Runowski, sł. K. Kowalska) 3:12
10 "Dlaczego nie!" (muz. J. Runowski, sł. K. Kowalska) 4:33
11 "Pętla" (muz. J. Runowski, sł. K. Kowalska) 7:01
Exact Audio Copy V0.99 prebeta 4 from 23. January 2008

Sprawozdanie ze zgrywania programem EAC z 12. Listopada 2008, 19:54

Kasia Kowalska / antepenultimate

Uїyty napкd: TSSTcorpCDDVDW SH-S203P Adapter: 1 ID: 0

Tryb odczytu: : BezpiecznyDokіadny strumieс : TakNeutralizacja bufora napкdu : TakZwracanie bікdуw C2 : Nie

Korekta poіoїenia dla odczytu : 6Nadczytywanie w obszarach LeadIn i LeadOut : NieDopeіnianie cisz№ brakuj№cych prуbek : TakUsuwanie pocz№tkowych i koсcowych blokуw ciszy : NieDo przeliczenia sumy kontrolnej CRC uїywane s№ prуbki zerowe : NieInterfejs : Wewnкtrzny interfejs Win32 dla Windows NT i 2000Przerwy : Dodane do poprzedniego nagrania

Uїyty format wyjњciowy : Wewnкtrzne procedury WAVFormat prуbki : 44.100 Hz; 16 bitуw; stereo

TOC zgranej pіyty

Utwуr | Pocz№tek | Dіugoњж | Sektor pocz№tkowy | Sektor koсcowy ------------------------------------------------------------------ 1 | 0:00.00 | 4:03.72 | 0 | 18296 2 | 4:03.72 | 4:26.18 | 18297 | 38264 3 | 8:30.15 | 3:43.15 | 38265 | 55004 4 | 12:13.30 | 3:50.54 | 55005 | 72308 5 | 16:04.09 | 4:55.67 | 72309 | 94500 6 | 21:00.01 | 3:41.11 | 94501 | 111086 7 | 24:41.12 | 3:46.23 | 111087 | 128059 8 | 28:27.35 | 2:50.18 | 128060 | 140827 9 | 31:17.53 | 3:12.34 | 140828 | 155261 10 | 34:30.12 | 4:33.13 | 155262 | 175749 11 | 39:03.25 | 7:01.32 | 175750 | 207356

Nagranie 1

Њcieїka pliku L:\Kasia Kowalska - antepenultimate\01 - Mlіosc Trzezwosc i Pokora.wav

Dіugoњж przerwy 0:00:02.00

Poziom wysterowania 97.2 % Jakoњж nagrania 100.0 % CRC testowana C65338FC CRC kopii C65338FC Nagrania nie ma w bazie danych AccurateRip Kopia bezbікdna

Nagranie 2

Њcieїka pliku L:\Kasia Kowalska - antepenultimate\02 - Baby blues.wav

Poziom wysterowania 100.0 % Jakoњж nagrania 100.0 % CRC testowana CB5F2458 CRC kopii CB5F2458 Nagrania nie ma w bazie danych AccurateRip Kopia bezbікdna

Nagranie 3

Њcieїka pliku L:\Kasia Kowalska - antepenultimate\03 - A ty czego chcesz .wav

Poziom wysterowania 100.0 % Jakoњж nagrania 100.0 % CRC testowana 4C4BAFAB CRC kopii 4C4BAFAB Nagrania nie ma w bazie danych AccurateRip Kopia bezbікdna

Nagranie 4

Њcieїka pliku L:\Kasia Kowalska - antepenultimate\04 - Jak slonca promien.wav

Poziom wysterowania 100.0 % Jakoњж nagrania 100.0 % CRC testowana FE4B81D8 CRC kopii FE4B81D8 Nagrania nie ma w bazie danych AccurateRip Kopia bezbікdna

Nagranie 5

Њcieїka pliku L:\Kasia Kowalska - antepenultimate\05 - Jeden dzien szczescia.wav

Poziom wysterowania 100.0 % Jakoњж nagrania 100.0 % CRC testowana C54ED94B CRC kopii C54ED94B Nagrania nie ma w bazie danych AccurateRip Kopia bezbікdna

Nagranie 6

Њcieїka pliku L:\Kasia Kowalska - antepenultimate\06 - Niewzruszony.wav

Poziom wysterowania 82.4 % Jakoњж nagrania 99.9 % CRC testowana 83612527 CRC kopii 83612527 Nagrania nie ma w bazie danych AccurateRip Kopia bezbікdna

Nagranie 7

Њcieїka pliku L:\Kasia Kowalska - antepenultimate\07 - Maskarada.wav

Poziom wysterowania 100.0 % Jakoњж nagrania 100.0 % CRC testowana AF54F558 CRC kopii AF54F558 Nagrania nie ma w bazie danych AccurateRip Kopia bezbікdna

Nagranie 8

Њcieїka pliku L:\Kasia Kowalska - antepenultimate\08 - Anhedonia.wav

Poziom wysterowania 100.0 % Jakoњж nagrania 100.0 % CRC testowana 3932D0A6 CRC kopii 3932D0A6 Nagrania nie ma w bazie danych AccurateRip Kopia bezbікdna

Nagranie 9

Њcieїka pliku L:\Kasia Kowalska - antepenultimate\09 - Spowiedz.wav

Poziom wysterowania 100.0 % Jakoњж nagrania 100.0 % CRC testowana F74C7EB5 CRC kopii F74C7EB5 Nagrania nie ma w bazie danych AccurateRip Kopia bezbікdna

Nagranie 10

Њcieїka pliku L:\Kasia Kowalska - antepenultimate\10 - Dlaczego nie.wav

Poziom wysterowania 100.0 % Jakoњж nagrania 100.0 % CRC testowana D2142785 CRC kopii D2142785 Nagrania nie ma w bazie danych AccurateRip Kopia bezbікdna

Nagranie 11

Њcieїka pliku L:\Kasia Kowalska - antepenultimate\11 - Petla.wav

Poziom wysterowania 79.4 % Jakoњж nagrania 100.0 % CRC testowana 0267FF5B CRC kopii 0267FF5B Nagrania nie ma w bazie danych AccurateRip Kopia bezbікdna

Їadnego nagrania nie ma w bazie danych AccurateRip

Nie byіo bікdуw

Koniec raportu


Трекер:  [ 26-Янв-2013 19:09 ]

  

Скачать .torrent

Размер .torrent файла 15 KB


Размер: 341 MB
Хэш (hash) релиза: 553252c1c22d1b6f374fe2dadb9249f6740827fa

Еще никто не оставлял запись к записи скачать торрент Kasia Kowalska - Antepenultimate - 2008, FLAC . Будь первым!

!Обратная связь