Скачать через торрент музыку Sunburned Hand Of The Man - Feel The Wind - 2007, FLAC бесплатно без регистрации torrent

Если у вас наблюдаются проблемы со скриншотами, переходом по ссылками, скачиванием торрентов - проблемы в блокировщике рекламы AdBlock. #хорошегоДня!


Статистика раздачи
Размер:  180 MB   |    Зарегистрирован:  4 года 9 месяцев   |    .torrent скачан:  20 раз   |   
Раздают:  1  
   
Загрузка...
 
Автор Сообщение

Galfimbul

avatar Galfimbul


Sunburned Hand Of The Man / Feel The Wind

Жанр: Psychedelic, Free Folk, Noise, Improvisation
Страна-производитель диска: USA
Год издания: 2007
Издатель (лейбл): Manhand
Номер по каталогу: Manhand42
Страна: USA

Аудиокодек: FLAC (*.flac)
Тип рипа: tracks+.cue
Битрейт аудио: lossless
Продолжительность: 00:33:19

Источник (релизер): what.cd (Muffinhacker)

Наличие сканов в содержимом раздачи: да

Треклист:
1 Outflow From Nucleus 01:08
2 Feel the Wind 25:01
3 House of the Puppetty Puppet 03:04
4 You Might Have to Leave Town When You Find Out 03:46
X Lossless Decoder version 20120609 (141.0)

XLD extraction logfile from 2012-06-19 09:49:33 +0100

Sunburned Hand Of The Man / Feel The Wind

Used drive : TSSTcorp CDDVDW SE-208AB (revision TS03)

Ripper mode : XLD Secure RipperDisable audio cache : OK for the drive with a cache less than 1375KiBMake use of C2 pointers : NORead offset correction : 6Max retry count : 20Gap status : Analyzed, Appended (except HTOA)

TOC of the extracted CD Track | Start | Length | Start sector | End sector --------------------------------------------------------- 1 | 00:00:00 | 01:07:66 | 0 | 5090 2 | 01:07:66 | 25:00:38 | 5091 | 117628 3 | 26:08:29 | 03:23:48 | 117629 | 132901 4 | 29:32:02 | 03:45:50 | 132902 | 149826

AccurateRip Summary Disc not found in AccurateRip DB.

All Tracks Album gain : 0.54 dB Peak : 1.000000 Statistics Read error : 0 Jitter error (maybe fixed) : 0 Retry sector count : 0 Damaged sector count : 0

Track 01 Filename : /Volumes/1TB/What.CD/Sunburned Hand Of The Man - Feel The Wind (2005) [FLAC]/01 Outflow From Nucleus.flac Pre-gap length : 00:02:00

Track gain : -4.81 dB Peak : 1.000000 CRC32 hash (test run) : 02D7777B CRC32 hash : 02D7777B CRC32 hash (skip zero) : B9249089 AccurateRip v1 signature : 2BF45DD0 AccurateRip v2 signature : 9DCDB190 ->Track not present in AccurateRip database. Statistics Read error : 0 Jitter error (maybe fixed) : 0 Retry sector count : 0 Damaged sector count : 0

Track 02 Filename : /Volumes/1TB/What.CD/Sunburned Hand Of The Man - Feel The Wind (2005) [FLAC]/02 Feel The Wind.flac Pre-gap length : 00:02:00

Track gain : 3.93 dB Peak : 0.226105 CRC32 hash (test run) : 96A87127 CRC32 hash : 96A87127 CRC32 hash (skip zero) : 14932AEB AccurateRip v1 signature : F5CB106F AccurateRip v2 signature : 43AF8999 ->Track not present in AccurateRip database. Statistics Read error : 0 Jitter error (maybe fixed) : 0 Retry sector count : 0 Damaged sector count : 0

Track 03 Filename : /Volumes/1TB/What.CD/Sunburned Hand Of The Man - Feel The Wind (2005) [FLAC]/03 House Of The Puppetty Puppet.flac Pre-gap length : 00:02:00

Track gain : 16.37 dB Peak : 0.092041 CRC32 hash (test run) : B2EBE6DC CRC32 hash : B2EBE6DC CRC32 hash (skip zero) : 162B1786 AccurateRip v1 signature : 5E5B524E AccurateRip v2 signature : B426EAAF ->Track not present in AccurateRip database. Statistics Read error : 0 Jitter error (maybe fixed) : 0 Retry sector count : 0 Damaged sector count : 0

Track 04 Filename : /Volumes/1TB/What.CD/Sunburned Hand Of The Man - Feel The Wind (2005) [FLAC]/04 You Might Have To Leave Town When You Find Out.flac Pre-gap length : 00:02:00

Track gain : -2.79 dB Peak : 0.671356 CRC32 hash (test run) : EEA5E183 CRC32 hash : EEA5E183 CRC32 hash (skip zero) : D681ACB9 AccurateRip v1 signature : A8F5CE93 AccurateRip v2 signature : B50D85EC ->Track not present in AccurateRip database. Statistics Read error : 0 Jitter error (maybe fixed) : 0 Retry sector count : 0 Damaged sector count : 0

No errors occurred

End of status report
TITLE "Feel The Wind"PERFORMER "Sunburned Hand Of The Man"REM GENRE "Indie Rock"REM DATE "2005"REM DISCID 3107CD04REM REPLAYGAIN_ALBUM_GAIN 0.54 dBREM REPLAYGAIN_ALBUM_PEAK 1.000000FILE "01 Outflow From Nucleus.flac" WAVE TRACK 01 AUDIO TITLE "Outflow From Nucleus" REM REPLAYGAIN_TRACK_GAIN -4.81 dB REM REPLAYGAIN_TRACK_PEAK 1.000000 INDEX 01 00:00:00 TRACK 02 AUDIO TITLE "Feel The Wind" REM REPLAYGAIN_TRACK_GAIN 3.93 dB REM REPLAYGAIN_TRACK_PEAK 0.226105 INDEX 00 01:05:66FILE "02 Feel The Wind.flac" WAVE INDEX 01 00:00:00 TRACK 03 AUDIO TITLE "House Of The Puppetty Puppet" REM REPLAYGAIN_TRACK_GAIN 16.37 dB REM REPLAYGAIN_TRACK_PEAK 0.092041 INDEX 00 24:58:38FILE "03 House Of The Puppetty Puppet.flac" WAVE INDEX 01 00:00:00 TRACK 04 AUDIO TITLE "You Might Have To Leave Town When You Find Out" REM REPLAYGAIN_TRACK_GAIN -2.79 dB REM REPLAYGAIN_TRACK_PEAK 0.671356 INDEX 00 03:21:48FILE "04 You Might Have To Leave Town When You Find Out.flac" WAVE INDEX 01 00:00:00


Трекер:  [ 26-Янв-2013 19:09 ]

  

Скачать .torrent

Размер .torrent файла 29 KB


Размер: 180 MB
Хэш (hash) релиза: 1037d4792fc5052d3be355d66f0c7166e871f780

Еще никто не оставлял запись к записи скачать торрент Sunburned Hand Of The Man - Feel The Wind - 2007, FLAC . Будь первым!

!Обратная связь