Скачать через торрент музыку Sunburned Hand Of The Man - A Manhunt In D - 2005, FLAC бесплатно без регистрации torrent

Если у вас наблюдаются проблемы со скриншотами, переходом по ссылками, скачиванием торрентов - проблемы в блокировщике рекламы AdBlock. #хорошегоДня!


Статистика раздачи
Размер:  156 MB   |    Зарегистрирован:  4 года 6 месяцев   |    .torrent скачан:  30 раз   |   
Раздают:  1  
   
Загрузка...
 
Автор Сообщение

Galfimbul

avatar Galfimbul


Sunburned Hand Of The Man / A Manhunt In D

Жанр: Psychedelic, Free Folk, Noise, Improvisation
Страна-производитель диска: USA
Год издания: 2005
Издатель (лейбл): Manhand
Номер по каталогу: Manhand018
Страна: USA

Аудиокодек: FLAC (*.flac)
Тип рипа: tracks+.cue
Битрейт аудио: lossless
Продолжительность: 00:30:08

Источник (релизер): what.cd (wikieup)

Наличие сканов в содержимом раздачи: нет

Треклист:
1. Trustify 07:42
2. A Manhunt In D / Enter The Victim 06:54
3. Dear Dean 05:29
4. White Light Questions 06:08
5. Untitled 03:55
Exact Audio Copy V1.0 beta 1 from 15. November 2010

EAC extraction logfile from 16. June 2011, 12:28

Sunburned Hand Of The Man / A Manhunt In D

Used drive : Optiarc DVD+-RW AD-7580A Adapter: 0 ID: 0

Read mode : SecureUtilize accurate stream : YesDefeat audio cache : YesMake use of C2 pointers : No

Read offset correction : 6Overread into Lead-In and Lead-Out : NoFill up missing offset samples with silence : YesDelete leading and trailing silent blocks : NoNull samples used in CRC calculations : YesUsed interface : Native Win32 interface for Win NT & 2000Gap handling : Appended to previous track

Used output format : User Defined EncoderSelected bitrate : 896 kBit/sQuality : HighAdd ID3 tag : NoCommand line compressor : C:\Program Files\Exact Audio Copy\FLAC\FLAC.EXEAdditional command line options : -6 -V -T "ARTIST=%a" -T "TITLE=%t" -T "ALBUM=%g" -T "DATE=%y" -T "TRACKNUMBER=%n" -T "GENRE=%m" -T "COMMENT=%e" %j--picture="%i"%j %s -o %d

TOC of the extracted CD

Track | Start | Length | Start sector | End sector --------------------------------------------------------- 1 | 0:00.00 | 7:41.50 | 0 | 34624 2 | 7:41.50 | 6:54.15 | 34625 | 65689 3 | 14:35.65 | 5:28.46 | 65690 | 90335 4 | 20:04.36 | 6:07.64 | 90336 | 117924 5 | 26:12.25 | 3:54.60 | 117925 | 135534

Track 1

Filename C:\Documents and Settings\jeffrey.baldwin\Desktop\FLAC Rips\01 Trustify.wav

Pre-gap length 0:00:02.00

Peak level 100.0 % Extraction speed 3.3 X Track quality 100.0 % Test CRC B50D5E48 Copy CRC B50D5E48 Track not present in AccurateRip database Copy OK

Track 2

Filename C:\Documents and Settings\jeffrey.baldwin\Desktop\FLAC Rips\02 A Manhunt In D , Enter The Victim.wav

Pre-gap length 0:00:02.00

Peak level 100.0 % Extraction speed 3.7 X Track quality 100.0 % Test CRC EBF9AA2E Copy CRC EBF9AA2E Track not present in AccurateRip database Copy OK

Track 3

Filename C:\Documents and Settings\jeffrey.baldwin\Desktop\FLAC Rips\03 Dear Dean.wav

Pre-gap length 0:00:02.00

Peak level 100.0 % Extraction speed 4.0 X Track quality 100.0 % Test CRC 978A3F58 Copy CRC 978A3F58 Track not present in AccurateRip database Copy OK

Track 4

Filename C:\Documents and Settings\jeffrey.baldwin\Desktop\FLAC Rips\04 White Light Questions.wav

Pre-gap length 0:00:02.00

Peak level 99.1 % Extraction speed 4.3 X Track quality 100.0 % Test CRC A351FF9E Copy CRC A351FF9E Track not present in AccurateRip database Copy OK

Track 5

Filename C:\Documents and Settings\jeffrey.baldwin\Desktop\FLAC Rips\05 Untitled.wav

Pre-gap length 0:00:02.00

Peak level 100.0 % Extraction speed 3.5 X Track quality 99.9 % Test CRC 43DC222F Copy CRC 43DC222F Track not present in AccurateRip database Copy OK

None of the tracks are present in the AccurateRip database

No errors occurred

End of status report

==== Log checksum 30E5BDE1AD50047693AAC949C05A800A476A24229B0263F4F16C2594680C93D5 ====
REM GENRE "Psychedelic Rock"REM DATE 2005REM DISCID 3F070F05REM COMMENT "ExactAudioCopy v1.0b1"PERFORMER "Sunburned Hand Of The Man"TITLE "A Manhunt In D"FILE "01 Trustify.wav" WAVE TRACK 01 AUDIO TITLE "Trustify" PERFORMER "Sunburned Hand Of The Man" INDEX 01 00:00:00 TRACK 02 AUDIO TITLE "A Manhunt In D / Enter The Victim" PERFORMER "Sunburned Hand Of The Man" INDEX 00 07:39:50FILE "02 A Manhunt In D , Enter The Victim.wav" WAVE INDEX 01 00:00:00 TRACK 03 AUDIO TITLE "Dear Dean" PERFORMER "Sunburned Hand Of The Man" INDEX 00 06:52:15FILE "03 Dear Dean.wav" WAVE INDEX 01 00:00:00 TRACK 04 AUDIO TITLE "White Light Questions" PERFORMER "Sunburned Hand Of The Man" INDEX 00 05:26:46FILE "04 White Light Questions.wav" WAVE INDEX 01 00:00:00 TRACK 05 AUDIO TITLE "Untitled" PERFORMER "Sunburned Hand Of The Man" INDEX 00 06:05:64FILE "05 Untitled.wav" WAVE INDEX 01 00:00:00


Трекер:  [ 26-Янв-2013 19:09 ]

  

Скачать .torrent

Размер .torrent файла 25 KB


Размер: 156 MB
Хэш (hash) релиза: 5b482d4e4442ed2c51473f8b7708b3386a97eb80

Еще никто не оставлял запись к записи скачать торрент Sunburned Hand Of The Man - A Manhunt In D - 2005, FLAC . Будь первым!

!Обратная связь