Скачать через торрент музыку Random Hold - The View From Here бесплатно без регистрации torrent

Если у вас наблюдаются проблемы со скриншотами, переходом по ссылками, скачиванием торрентов - проблемы в блокировщике рекламы AdBlock. #хорошегоДня!


Статистика раздачи
Размер:  809 MB   |    Зарегистрирован:  4 года 8 месяцев   |    .torrent скачан:  23 раза   |   
Раздают:  1  
   
Загрузка...
 
Автор Сообщение

Galfimbul

avatar Galfimbul


Random Hold / The View From Here (2CD)

Жанр: Art Rock, Alternative Rock, New Wave
Страна-производитель диска: UK
Год издания: 2001
Издатель (лейбл): Voiceprint
Номер по каталогу: VP239CD
Страна: UK
Аудиокодек: FLAC (*.flac)
Тип рипа: tracks+.cue
Битрейт аудио: lossless
Продолжительность: 61:56 + 59:59
Источник (релизер): свой фирменный диск
Наличие сканов в содержимом раздачи: нет
Треклист:
1-1 Meat 2:37
1-2 Second Nature 3:58
1-3 The Ballad 3:06
1-4 Precarious Timbers 5:41
1-5 Central Reservation 4:19
1-6 Avalanche 4:29
1-7 Cause And Effect 3:04
1-8 Dolphin Logic 6:09
1-9 Silver Spoons 3:35
1-10 Fear Eats The Soul 3:14
1-11 Etceteraville 3:55
1-12 With People Out Of Love 6:21
1-13 Film Music 4:34
1-14 Montgomery Clift 6:49
2-1 Tunnel Vision 8:15
2-2 What Happened 4:52
2-3 The View From Here 8:18

Live At The Tower Theatre, Philadelphia, July 10th, 1980
2-4 Peter Gabriel Intro 1:01
2-5 What Happened 4:59
2-6 Avalanche 3:59
2-7 Etceteraville 3:40
2-8 Silver Spoons 3:23
2-9 Where Do All The People Live? 4:41
2-10 Today Is As Good As Any Other 3:32
2-11 Passive Camera 3:57
2-12 Montgomery Clift 5:56
-
2-13 Second Nature 3:30
Exact Audio Copy V1.0 beta 3 from 29. August 2011

EAC extraction logfile from 23. January 2013, 16:58

Random Hold / The View From Here (Disc 1)

Used drive : PIONEER DVD-RW DVR-115D Adapter: 0 ID: 0

Read mode : Secure
Utilize accurate stream : Yes
Defeat audio cache : Yes
Make use of C2 pointers : No

Read offset correction : 48
Overread into Lead-In and Lead-Out : No
Fill up missing offset samples with silence : Yes
Delete leading and trailing silent blocks : No
Null samples used in CRC calculations : Yes
Used interface : Installed external ASPI interface
Gap handling : Appended to previous track

Used output format : User Defined Encoder
Selected bitrate : 896 kBit/s
Quality : High
Add ID3 tag : No
Command line compressor : C:\Program Files\Exact Audio Copy\FLAC\FLAC.EXE
Additional command line options : -6 -V -T "ARTIST=%artist%" -T "TITLE=%title%" -T "ALBUM=%albumtitle%" -T "DATE=%year%" -T "TRACKNUMBER=%tracknr%" -T "GENRE=%genre%" -T "COMMENT=%comment%" -T "BAND=%albuminterpret%" -T "COMPOSER=%composer%" %haslyrics%--tag-from-file=LYRICS="%lyricsfile%"%haslyrics% -T "DISCNUMBER=%cdnumber%" -T "TOTALDISCS=%totalcds%" -T "TOTALTRACKS=%numtracks%" %hascover%--picture="%coverfile%"%hascover% %source% -o %dest%

TOC of the extracted CD

Track | Start | Length | Start sector | End sector
---------------------------------------------------------
1 | 0:00.00 | 2:37.70 | 0 | 11844
2 | 2:37.70 | 3:58.01 | 11845 | 29695
3 | 6:35.71 | 3:06.13 | 29696 | 43658
4 | 9:42.09 | 5:41.35 | 43659 | 69268
5 | 15:23.44 | 4:19.00 | 69269 | 88693
6 | 19:42.44 | 4:29.39 | 88694 | 108907
7 | 24:12.08 | 3:04.09 | 108908 | 122716
8 | 27:16.17 | 6:09.42 | 122717 | 150433
9 | 33:25.59 | 3:35.08 | 150434 | 166566
10 | 37:00.67 | 3:14.23 | 166567 | 181139
11 | 40:15.15 | 3:55.12 | 181140 | 198776
12 | 44:10.27 | 6:21.60 | 198777 | 227411
13 | 50:32.12 | 4:34.65 | 227412 | 248026
14 | 55:07.02 | 6:49.35 | 248027 | 278736

Track 1

Filename D:\zzz\01 - Meat.wav

Pre-gap length 0:00:02.00

Peak level 95.3 %
Extraction speed 3.9 X
Track quality 100.0 %
Test CRC 7AB151EF
Copy CRC 7AB151EF
Accurately ripped (confidence 7) [8A8E040B] (AR v1)
Copy OK

Track 2

Filename D:\zzz\02 - Second Nature.wav

Pre-gap length 0:00:02.20

Peak level 98.8 %
Extraction speed 4.1 X
Track quality 99.9 %
Test CRC 4D361E99
Copy CRC 4D361E99
Accurately ripped (confidence 7) [D2265B66] (AR v1)
Copy OK

Track 3

Filename D:\zzz\03 - The Ballad.wav

Pre-gap length 0:00:02.20

Peak level 98.8 %
Extraction speed 4.8 X
Track quality 100.0 %
Test CRC C4EFC6A9
Copy CRC C4EFC6A9
Accurately ripped (confidence 7) [0F90014B] (AR v1)
Copy OK

Track 4

Filename D:\zzz\04 - Precarious Timbers.wav

Pre-gap length 0:00:01.48

Peak level 98.8 %
Extraction speed 5.5 X
Track quality 100.0 %
Test CRC 15B4C6C2
Copy CRC 15B4C6C2
Accurately ripped (confidence 7) [06B89667] (AR v1)
Copy OK

Track 5

Filename D:\zzz\05 - Central Reservation.wav

Pre-gap length 0:00:02.21

Peak level 98.6 %
Extraction speed 5.8 X
Track quality 100.0 %
Test CRC DCA59DB0
Copy CRC DCA59DB0
Accurately ripped (confidence 7) [C6C18FBF] (AR v1)
Copy OK

Track 6

Filename D:\zzz\06 - Avalanche.wav

Pre-gap length 0:00:02.39

Peak level 98.8 %
Extraction speed 6.1 X
Track quality 100.0 %
Test CRC C8C7061C
Copy CRC C8C7061C
Accurately ripped (confidence 7) [B88D5C3F] (AR v1)
Copy OK

Track 7

Filename D:\zzz\07 - Cause And Effect.wav

Pre-gap length 0:00:02.47

Peak level 98.1 %
Extraction speed 6.1 X
Track quality 100.0 %
Test CRC 53864DCC
Copy CRC 53864DCC
Accurately ripped (confidence 7) [AFB9D960] (AR v1)
Copy OK

Track 8

Filename D:\zzz\08 - Dolphin Logic.wav

Pre-gap length 0:00:01.37

Peak level 98.8 %
Extraction speed 6.9 X
Track quality 100.0 %
Test CRC 3C49C012
Copy CRC 3C49C012
Accurately ripped (confidence 6) [8EFA43A3] (AR v1)
Copy OK

Track 9

Filename D:\zzz\09 - Silver Spoons.wav

Peak level 98.8 %
Extraction speed 6.0 X
Track quality 99.9 %
Test CRC 7A0AD07C
Copy CRC 7A0AD07C
Accurately ripped (confidence 7) [09E6C75C] (AR v1)
Copy OK

Track 10

Filename D:\zzz\10 - Fear Eats The Soul.wav

Pre-gap length 0:00:02.25

Peak level 70.8 %
Extraction speed 6.9 X
Track quality 100.0 %
Test CRC 9B2F2393
Copy CRC 9B2F2393
Accurately ripped (confidence 7) [8B8A84FC] (AR v1)
Copy OK

Track 11

Filename D:\zzz\11 - Etceteraville.wav

Pre-gap length 0:00:02.69

Peak level 98.8 %
Extraction speed 7.3 X
Track quality 100.0 %
Test CRC 18B4D446
Copy CRC 18B4D446
Accurately ripped (confidence 7) [C056D877] (AR v1)
Copy OK

Track 12

Filename D:\zzz\12 - With People Out Of Love.wav

Pre-gap length 0:00:01.66

Peak level 98.6 %
Extraction speed 7.3 X
Track quality 99.9 %
Test CRC BCCDA701
Copy CRC BCCDA701
Accurately ripped (confidence 7) [CE6DE522] (AR v1)
Copy OK

Track 13

Filename D:\zzz\13 - Film Music.wav

Pre-gap length 0:00:01.42

Peak level 95.2 %
Extraction speed 7.2 X
Track quality 99.9 %
Test CRC 3C48E194
Copy CRC 3C48E194
Accurately ripped (confidence 7) [FD7818CB] (AR v1)
Copy OK

Track 14

Filename D:\zzz\14 - Montgomery Clift.wav

Pre-gap length 0:00:01.74

Peak level 98.8 %
Extraction speed 8.6 X
Track quality 100.0 %
Test CRC 93EFD873
Copy CRC 93EFD873
Accurately ripped (confidence 7) [6978747F] (AR v1)
Copy OK

All tracks accurately ripped

No errors occurred

End of status report

==== Log checksum FFC57450D8F7B850CA5300BF1B4813AAF6F23F7626BA463D33B70CC5A3A786D6 ====
Exact Audio Copy V1.0 beta 3 from 29. August 2011

EAC extraction logfile from 23. January 2013, 17:21

Random Hold / The View From Here (Disc 2)

Used drive : PIONEER DVD-RW DVR-115D Adapter: 0 ID: 0

Read mode : Secure
Utilize accurate stream : Yes
Defeat audio cache : Yes
Make use of C2 pointers : No

Read offset correction : 48
Overread into Lead-In and Lead-Out : No
Fill up missing offset samples with silence : Yes
Delete leading and trailing silent blocks : No
Null samples used in CRC calculations : Yes
Used interface : Installed external ASPI interface
Gap handling : Appended to previous track

Used output format : User Defined Encoder
Selected bitrate : 896 kBit/s
Quality : High
Add ID3 tag : No
Command line compressor : C:\Program Files\Exact Audio Copy\FLAC\FLAC.EXE
Additional command line options : -6 -V -T "ARTIST=%artist%" -T "TITLE=%title%" -T "ALBUM=%albumtitle%" -T "DATE=%year%" -T "TRACKNUMBER=%tracknr%" -T "GENRE=%genre%" -T "COMMENT=%comment%" -T "BAND=%albuminterpret%" -T "COMPOSER=%composer%" %haslyrics%--tag-from-file=LYRICS="%lyricsfile%"%haslyrics% -T "DISCNUMBER=%cdnumber%" -T "TOTALDISCS=%totalcds%" -T "TOTALTRACKS=%numtracks%" %hascover%--picture="%coverfile%"%hascover% %source% -o %dest%

TOC of the extracted CD

Track | Start | Length | Start sector | End sector
---------------------------------------------------------
1 | 0:00.00 | 8:15.68 | 0 | 37192
2 | 8:15.68 | 4:47.52 | 37193 | 58769
3 | 13:03.45 | 8:17.24 | 58770 | 96068
4 | 21:20.69 | 1:00.55 | 96069 | 100623
5 | 22:21.49 | 4:55.65 | 100624 | 122813
6 | 27:17.39 | 3:58.71 | 122814 | 140734
7 | 31:16.35 | 3:41.67 | 140735 | 157376
8 | 34:58.27 | 3:21.55 | 157377 | 172506
9 | 38:20.07 | 4:41.29 | 172507 | 193610
10 | 43:01.36 | 3:32.36 | 193611 | 209546
11 | 46:33.72 | 3:57.06 | 209547 | 227327
12 | 50:31.03 | 5:56.11 | 227328 | 254038
13 | 56:27.14 | 3:32.17 | 254039 | 269955

Track 1

Filename D:\zzz\01 - Tunnel Vision.wav

Pre-gap length 0:00:02.00

Peak level 79.9 %
Extraction speed 4.8 X
Track quality 100.0 %
Test CRC A51A93CD
Copy CRC A51A93CD
Accurately ripped (confidence 6) [0DAC3F20] (AR v1)
Copy OK

Track 2

Filename D:\zzz\02 - What Happened.wav

Pre-gap length 0:00:01.11

Peak level 78.2 %
Extraction speed 5.3 X
Track quality 100.0 %
Test CRC 13943560
Copy CRC 13943560
Accurately ripped (confidence 6) [A1E6C25D] (AR v1)
Copy OK

Track 3

Filename D:\zzz\03 - The View From Here.wav

Pre-gap length 0:00:01.70

Peak level 85.9 %
Extraction speed 5.8 X
Track quality 99.9 %
Test CRC E1C11ABE
Copy CRC E1C11ABE
Accurately ripped (confidence 6) [F1C5B363] (AR v1)
Copy OK

Track 4

Filename D:\zzz\04 - Peter Gabriel intro.wav

Pre-gap length 0:00:04.69

Peak level 90.2 %
Extraction speed 3.2 X
Track quality 99.8 %
Test CRC 3ED23A5E
Copy CRC 3ED23A5E
Accurately ripped (confidence 5) [47208788] (AR v1)
Copy OK

Track 5

Filename D:\zzz\05 - What Happened.wav

Peak level 83.8 %
Extraction speed 6.4 X
Track quality 100.0 %
Test CRC C2242BE0
Copy CRC C2242BE0
Accurately ripped (confidence 6) [37CE5073] (AR v1)
Copy OK

Track 6

Filename D:\zzz\06 - Avalanche.wav

Peak level 84.1 %
Extraction speed 6.6 X
Track quality 100.0 %
Test CRC B7B9AD6E
Copy CRC B7B9AD6E
Accurately ripped (confidence 6) [4F8B7554] (AR v1)
Copy OK

Track 7

Filename D:\zzz\07 - Etceteraville.wav

Peak level 85.3 %
Extraction speed 6.7 X
Track quality 100.0 %
Test CRC 7D19DD07
Copy CRC 7D19DD07
Accurately ripped (confidence 6) [A7E9DDE2] (AR v1)
Copy OK

Track 8

Filename D:\zzz\08 - Silver Spoons.wav

Peak level 83.6 %
Extraction speed 6.9 X
Track quality 100.0 %
Test CRC F6E914D2
Copy CRC F6E914D2
Accurately ripped (confidence 6) [4E794C91] (AR v1)
Copy OK

Track 9

Filename D:\zzz\09 - Where Do All the People Live.wav

Peak level 83.4 %
Extraction speed 7.4 X
Track quality 100.0 %
Test CRC A1089DFD
Copy CRC A1089DFD
Accurately ripped (confidence 6) [1FF800D9] (AR v1)
Copy OK

Track 10

Filename D:\zzz\10 - Today Is As Good As Any Other.wav

Peak level 83.5 %
Extraction speed 6.5 X
Track quality 99.9 %
Test CRC E0D4DF92
Copy CRC E0D4DF92
Accurately ripped (confidence 5) [F4167AA5] (AR v1)
Copy OK

Track 11

Filename D:\zzz\11 - Passive Camera.wav

Peak level 98.8 %
Extraction speed 7.6 X
Track quality 100.0 %
Test CRC 6F0EED94
Copy CRC 6F0EED94
Accurately ripped (confidence 6) [591BE1E3] (AR v1)
Copy OK

Track 12

Filename D:\zzz\12 - Montgomery Clift.wav

Peak level 84.6 %
Extraction speed 8.3 X
Track quality 100.0 %
Test CRC 0917AB47
Copy CRC 0917AB47
Accurately ripped (confidence 6) [0296E4BC] (AR v1)
Copy OK

Track 13

Filename D:\zzz\13 - Second Nature.wav

Pre-gap length 0:00:01.56

Peak level 83.7 %
Extraction speed 8.0 X
Track quality 100.0 %
Test CRC 568DEC0C
Copy CRC 568DEC0C
Accurately ripped (confidence 6) [BC7A0982] (AR v1)
Copy OK

All tracks accurately ripped

No errors occurred

End of status report

==== Log checksum 3791A285912D4907C82F4A9276CF09B6E6EF162F12B4726CF26735E988F1D373 ====
REM GENRE Rock
REM DATE 2001
REM DISCID BA0E840E
REM COMMENT "ExactAudioCopy v1.0b3"
PERFORMER "Random Hold"
TITLE "The View From Here (Disc 1)"
FILE "01 - Meat.wav" WAVE
TRACK 01 AUDIO
TITLE "Meat"
PERFORMER "Random Hold"
INDEX 01 00:00:00
TRACK 02 AUDIO
TITLE "Second Nature"
PERFORMER "Random Hold"
INDEX 00 02:35:50
FILE "02 - Second Nature.wav" WAVE
INDEX 01 00:00:00
TRACK 03 AUDIO
TITLE "The Ballad"
PERFORMER "Random Hold"
INDEX 00 03:55:56
FILE "03 - The Ballad.wav" WAVE
INDEX 01 00:00:00
TRACK 04 AUDIO
TITLE "Precarious Timbers"
PERFORMER "Random Hold"
INDEX 00 03:04:40
FILE "04 - Precarious Timbers.wav" WAVE
INDEX 01 00:00:00
TRACK 05 AUDIO
TITLE "Central Reservation"
PERFORMER "Random Hold"
INDEX 00 05:39:14
FILE "05 - Central Reservation.wav" WAVE
INDEX 01 00:00:00
TRACK 06 AUDIO
TITLE "Avalanche"
PERFORMER "Random Hold"
INDEX 00 04:16:36
FILE "06 - Avalanche.wav" WAVE
INDEX 01 00:00:00
TRACK 07 AUDIO
TITLE "Cause And Effect"
PERFORMER "Random Hold"
INDEX 00 04:26:67
FILE "07 - Cause And Effect.wav" WAVE
INDEX 01 00:00:00
TRACK 08 AUDIO
TITLE "Dolphin Logic"
PERFORMER "Random Hold"
INDEX 00 03:02:47
FILE "08 - Dolphin Logic.wav" WAVE
INDEX 01 00:00:00
FILE "09 - Silver Spoons.wav" WAVE
TRACK 09 AUDIO
TITLE "Silver Spoons"
PERFORMER "Random Hold"
INDEX 01 00:00:00
TRACK 10 AUDIO
TITLE "Fear Eats The Soul"
PERFORMER "Random Hold"
INDEX 00 03:32:58
FILE "10 - Fear Eats The Soul.wav" WAVE
INDEX 01 00:00:00
TRACK 11 AUDIO
TITLE "Etceteraville"
PERFORMER "Random Hold"
INDEX 00 03:11:29
FILE "11 - Etceteraville.wav" WAVE
INDEX 01 00:00:00
TRACK 12 AUDIO
TITLE "With People Out Of Love"
PERFORMER "Random Hold"
INDEX 00 03:53:21
FILE "12 - With People Out Of Love.wav" WAVE
INDEX 01 00:00:00
TRACK 13 AUDIO
TITLE "Film Music"
PERFORMER "Random Hold"
INDEX 00 06:20:18
FILE "13 - Film Music.wav" WAVE
INDEX 01 00:00:00
TRACK 14 AUDIO
TITLE "Montgomery Clift"
PERFORMER "Random Hold"
INDEX 00 04:32:66
FILE "14 - Montgomery Clift.wav" WAVE
INDEX 01 00:00:00
REM GENRE Rock
REM DATE 2001
REM DISCID C00E0F0D
REM COMMENT "ExactAudioCopy v1.0b3"
PERFORMER "Random Hold"
TITLE "The View From Here (Disc 2)"
FILE "01 - Tunnel Vision.wav" WAVE
TRACK 01 AUDIO
TITLE "Tunnel Vision"
PERFORMER "Random Hold"
INDEX 01 00:00:00
TRACK 02 AUDIO
TITLE "What Happened"
PERFORMER "Random Hold"
INDEX 00 08:14:57
FILE "02 - What Happened.wav" WAVE
INDEX 01 00:00:00
TRACK 03 AUDIO
TITLE "The View From Here"
PERFORMER "Random Hold"
INDEX 00 04:45:57
FILE "03 - The View From Here.wav" WAVE
INDEX 01 00:00:00
TRACK 04 AUDIO
TITLE "Peter Gabriel intro"
PERFORMER "Random Hold"
INDEX 00 08:12:30
FILE "04 - Peter Gabriel intro.wav" WAVE
INDEX 01 00:00:00
FILE "05 - What Happened.wav" WAVE
TRACK 05 AUDIO
TITLE "What Happened"
PERFORMER "Random Hold"
INDEX 01 00:00:00
FILE "06 - Avalanche.wav" WAVE
TRACK 06 AUDIO
TITLE "Avalanche"
PERFORMER "Random Hold"
INDEX 01 00:00:00
FILE "07 - Etceteraville.wav" WAVE
TRACK 07 AUDIO
TITLE "Etceteraville"
PERFORMER "Random Hold"
INDEX 01 00:00:00
FILE "08 - Silver Spoons.wav" WAVE
TRACK 08 AUDIO
TITLE "Silver Spoons"
PERFORMER "Random Hold"
INDEX 01 00:00:00
FILE "09 - Where Do All the People Live.wav" WAVE
TRACK 09 AUDIO
TITLE "Where Do All the People Live?"
PERFORMER "Random Hold"
INDEX 01 00:00:00
FILE "10 - Today Is As Good As Any Other.wav" WAVE
TRACK 10 AUDIO
TITLE "Today Is As Good As Any Other"
PERFORMER "Random Hold"
INDEX 01 00:00:00
FILE "11 - Passive Camera.wav" WAVE
TRACK 11 AUDIO
TITLE "Passive Camera"
PERFORMER "Random Hold"
INDEX 01 00:00:00
FILE "12 - Montgomery Clift.wav" WAVE
TRACK 12 AUDIO
TITLE "Montgomery Clift"
PERFORMER "Random Hold"
INDEX 01 00:00:00
TRACK 13 AUDIO
TITLE "Second Nature"
PERFORMER "Random Hold"
INDEX 00 05:54:30
FILE "13 - Second Nature.wav" WAVE
INDEX 01 00:00:00
d:\>d:\aucdtect -d/-m0 d:\zzz\*.wavauCDtect: CD records authenticity detector, version 0.8.2Copyright (c) 2004 Oleg Berngardt. All rights reserved.Copyright (c) 2004 Alexander Djourik. All rights reserved.------------------------------------------------------------Processing file: [01. Meat.wav]

------------------------------------------------------------This track looks like CDDA with probability 100%

------------------------------------------------------------Processing file: [01. Tunnel Vision.wav]

------------------------------------------------------------This track looks like CDDA with probability 100%

------------------------------------------------------------Processing file: [02. Second Nature.wav]

------------------------------------------------------------This track looks like CDDA with probability 100%

------------------------------------------------------------Processing file: [02. What Happened.wav]

------------------------------------------------------------This track looks like CDDA with probability 100%

------------------------------------------------------------Processing file: [03. The Ballad.wav]

------------------------------------------------------------This track looks like CDDA with probability 100%

------------------------------------------------------------Processing file: [03. The View From Here.wav]

------------------------------------------------------------This track looks like CDDA with probability 100%

------------------------------------------------------------Processing file: [04. Peter Gabriel intro.wav]

------------------------------------------------------------This track looks like CDDA with probability 100%

------------------------------------------------------------Processing file: [04. Precarious Timbers.wav]

------------------------------------------------------------This track looks like CDDA with probability 100%

------------------------------------------------------------Processing file: [05. Central Reservation.wav]

------------------------------------------------------------This track looks like CDDA with probability 100%

------------------------------------------------------------Processing file: [05. What Happened.wav]

------------------------------------------------------------This track looks like CDDA with probability 100%

------------------------------------------------------------Processing file: [06. Avalanche.wav]

------------------------------------------------------------This track looks like CDDA with probability 100%

------------------------------------------------------------Processing file: [07. Cause And Effect.wav]

------------------------------------------------------------This track looks like CDDA with probability 100%

------------------------------------------------------------Processing file: [07. Etceteraville.wav]

------------------------------------------------------------This track looks like CDDA with probability 99%

------------------------------------------------------------Processing file: [08. Dolphin Logic.wav]

------------------------------------------------------------This track looks like CDDA with probability 100%

------------------------------------------------------------Processing file: [08. Silver Spoons.wav]

------------------------------------------------------------This track looks like CDDA with probability 100%

------------------------------------------------------------Processing file: [09. Silver Spoons.wav]

------------------------------------------------------------This track looks like CDDA with probability 99%

------------------------------------------------------------Processing file: [09. Where Do All the People Live.wav]

------------------------------------------------------------This track looks like CDDA with probability 100%

------------------------------------------------------------Processing file: [10. Fear Eats The Soul.wav]

------------------------------------------------------------This track looks like CDDA with probability 99%

------------------------------------------------------------Processing file: [10. Today Is As Good As Any Other.wav]

------------------------------------------------------------This track looks like CDDA with probability 100%

------------------------------------------------------------Processing file: [11. Etceteraville.wav]

------------------------------------------------------------This track looks like CDDA with probability 100%

------------------------------------------------------------Processing file: [11. Passive Camera.wav]

------------------------------------------------------------This track looks like CDDA with probability 100%

------------------------------------------------------------Processing file: [12. Montgomery Clift.wav]

------------------------------------------------------------This track looks like CDDA with probability 99%

------------------------------------------------------------Processing file: [12. With People Out Of Love.wav]

------------------------------------------------------------This track looks like CDDA with probability 99%

------------------------------------------------------------Processing file: [13. Film Music.wav]

------------------------------------------------------------This track looks like CDDA with probability 99%

------------------------------------------------------------Processing file: [13. Second Nature.wav]

------------------------------------------------------------This track looks like CDDA with probability 99%

------------------------------------------------------------Processing file: [14. Montgomery Clift.wav]

------------------------------------------------------------This track looks like CDDA with probability 99%

------------------------------------------------------------Final Conclusion:------------------------------------------------------------These tracks looks like CDDA with probability 100%
Доп. информация:
Переиздание легендарного двойника-сборника Avalanche плюс концертные записи 1980. Продюсер Avalanche - Питер Хэммилл.

Remastered Re-release of the vinyl double LP "Avalanche" plus bonus live recordings from 1980-07-10 Tower Theatre, Philadelphia and 1980-07-02 Ottawa Civic Centre, Ottawa (the cover does not state which tracks are from which show); Random Hold were the support act for Peter Gabriel on this (their final) tour. Gabriel can be heard announcing the band on track 4 of CD2.
CD 2 also contains a bonus demo of "Second Nature" as last track on the CD.

Tracks 1-14 on CD1 & 1-3 on CD2 produced by Peter Hammill for Gailforce Management Ltd.

Their connections were many, any of the comparisons they gained -- whether fitting or not -- were almost always favorable, and their supporters were prominent, but Random Hold were unable to use these aspects to their advantage enough to remain a lasting entity. During their short existence, they released an album that seemed to show a band with great promise. Like This Heat, Random Hold probably fit best in the fertile post-punk bin of the late '70s and early '80s, but their lack of ties to punk prevented them from being considered with the more experimental end of the rock spectrum. David Rhodes and David Ferguson decided to start a band after meeting at a 1976 concert by 801, the short-lived pseudo group that featured Phil Manzanera and Brian Eno. One major impairment was Ferguson's lack of musical skills and the fact that his knowledge of the guitar was limited and distant. Nonetheless, the duo practiced together and arranged a series of low-key gigs near the end of 1976. Named Manscheinen to reflect their shared interest in Krautrock, the duo continued to hone their material and eventually enlisted the services of others to fill out the lineup. Ex-Glitter Band drummer Pete Phipps joined up for a short spate, and eventually the core duo reeled in Simon Ainley, who -- oddly enough -- had just spent time playing guitar and singing with Phil Manzanera. And at some point prior, the group was re-named Random Hold. The trio recorded a demo and began playing out again, including an opening slot for Adam & the Ants that didn't go down so well. The crowd didn't take to their lack of a drummer or their non-aggressive sound, so they chased the band off-stage with a flurry of projectile spittle and still-in-the-glass beer. A few days later, the group approached early supporter Bill MacCormick, who had also played bass with Manzanera, as well as Eno. MacCormick joined on as a member and also kicked in with financial support. In need of a drummer, the group took out an ad in Melody Maker and eventually landed Richard Marcangelo long enough to cut another demo, which fell on unimpressed ears of the label and radio sectors. Marcangelo split soon after the demo's recording (he would later drum for Vibraphonic and Cinerama, oddly enough), another ad was placed, and another drummer -- David Leach -- joined on a more permanent basis. Thanks to a large feature in Melody Maker, which profiled a band in a still embryonic form, the labels suddenly perked up and engaged in a frenzied bidding war for the band. One thing that separated Random Hold from a number of bands they were often compared to up to this point -- This Heat, the Pop Group, Cabaret Voltaire, etc. -- was the desire to become popular and sell a lot of records. Polydor had the most to offer the group, and they partnered up with them. The band members proceeded to go on a shopping spree for equipment and all sorts of assorted trinkets to the point where it became difficult to fit everything on-stage. Still, prior to the recording of the band's first record, they caught the attention of Peter Gabriel, who had the band over to his place to play along with him. Gabriel expressed interest in producing the debut, but his hectic schedule prevented him from doing so. For health reasons, Leach was asked to leave the group and was replaced by former member Pete Phipps. Ainley was sacked around the same time, and Rhodes and MacCormick took over the vocal duties. Although the timing was odd, both changes had nothing to do with the label's involvement. The band went about recording their first album with Peter Hammill (Van Der Graaf Generator), and they wound up with two LPs' worth of material. Polydor released a single for "Etceteraville" that failed to do well. The band embarked on a 13-date tour with XTC, and the five-song Avalanche EP appeared on the racks around this time, accompanied by another slew of lukewarm reviews. A couple months after the tour with XTC, the band headed out with the extremely supportive Gabriel as the opening act on his U.K. tour. The tour coincided with the release of The View From Here, a full-length record culled from the sessions with Hammill. The reviews were more positive than not, but this proved to be of little help -- Polydor dropped the band shortly after they returned from the tour. Undaunted, the band started working on new material that they had been developing live. Meanwhile, management secured a distribution deal for the band in the States. During late spring, Random Hold set off on a tour of North America with Gabriel again in the headlining spot. During the tour, Passport, Random Hold's new U.S. distributor, offered to fund a tour of U.S. clubs that would take place after the Gabriel tour. The band eventually declined and returned home, planning to return to the States before the end of the year. Upon the return, MacCormick was given a verbal pink slip. Upset by the investment he had made in the group -- both physically and financially speaking -- MacCormick demanded that he have a large sum of money that was owed him returned to the source. The check all but emptied the band's bank account, effectively hamstringing them. Rhodes split the scene to play with Peter Gabriel and the remainder of the band decided to quit. Ferguson, however, attempted to form another version of Random Hold to little avail; with a new lineup, Random Hold appeared again in 1982 with Burn the Buildings on RCA. Not surprisingly, the record made less impact than The View from Here, and Ferguson went off to involvement with the short-lived Nine Ways to Win and a career in film music. Several years later, a pair of retrospective releases were issued on CD: a bolstered version of The View from Here expanded the album to two discs, and Over View offered more in the way of archival material.
Bass, Vocals – Bill MacCormick
Drums – David Leach (tracks: 2-13), Pete Phipps
Guitar, Vocals – David Rhodes, Simon Ainley (tracks: 2-13)
Keyboards, Vocals – David Ferguson
Producer – Bill MacCormick


Трекер:  [ 26-Янв-2013 21:40 ]

  

Скачать .torrent

Размер .torrent файла 18 KB


Размер: 809 MB
Хэш (hash) релиза: a55605ad5d067ca738e746fabb4960285c891b80

Еще никто не оставлял запись к записи скачать торрент Random Hold - The View From Here . Будь первым!

!Обратная связь