Скачать через торрент музыку Robert Palmer & UB40 - Ill Be Your Baby Tonight - 1990, FLAC бесплатно без регистрации torrent

Если у вас наблюдаются проблемы со скриншотами, переходом по ссылками, скачиванием торрентов - проблемы в блокировщике рекламы AdBlock. #хорошегоДня!


Статистика раздачи
Размер:  101 MB   |    Зарегистрирован:  4 года 6 месяцев   |    .torrent скачан:  30 раз   |   
Раздают:  1  
   
Загрузка...
 
Автор Сообщение

Galfimbul

avatar Galfimbul


Robert Palmer & UB40‎ - I'll Be Your Baby Tonight

Жанр: Pop Rock, Reggae
Страна-производитель диска: EU
Год издания: 1990
Издатель (лейбл): EMI
Номер по каталогу: 560-20 4110 2
Страна: UK
Аудиокодек: FLAC (*.flac)
Тип рипа: tracks+.cue
Битрейт аудио: lossless
Продолжительность: 00:15:27
Источник (релизер): Собственный рип
Наличие сканов в содержимом раздачи: нет
Треклист:
01. Robert Palmer - I'll Be Your Baby Tonight (3:29)
02. Robert Palmer - I'll Be Your Baby Tonight (Extended Version) (7:25)
03. Robert Palmer & UB40 - Deep End (4:33)
Exact Audio Copy V1.0 beta 3 from 29. August 2011

Отчёт EAC об извлечении, выполненном 26. января 2013, 18:49

Robert Palmer & UB40 / I'll Be Your Baby Tonight

Дисковод: ATAPI DVD A DH20A3H Adapter: 1 ID: 1

Режим чтения : ДостоверностьИспользование точного потока : ДаОтключение кэша аудио : ДаИспользование указателей C2 : Нет

Коррекция смещения при чтении : 6Способность читать области Lead-in и Lead-out : НетЗаполнение пропущенных сэмплов тишиной : ДаУдаление блоков с тишиной в начале и конце : НетПри вычислениях CRC использовались нулевые сэмплы : ДаИнтерфейс : Встроенный Win32-интерфейс для Win NT/2000Обработка зазоров : Добавлено к предыдущему треку

Выходной формат : Пользовательский кодировщикВыбранный битрейт : 1024 kBit/sКачество : ВысокийДобавление ID3-тега : НетУтилита сжатия : C:\Program Files\Exact Audio Copy\Flac\flac.exeДополнительные параметры : -V -8 -T "Genre=%genre%" -T "Artist=%artist%" -T "Title=%title%" -T "Album=%albumtitle%" -T "Date=%year%" -T "Tracknumber=%tracknr%" -T "Comment=%comment%" %source%

TOC извлечённого CD

Трек | Старт | Длительность | Начальный сектор | Конечный сектор --------------------------------------------------------------------- 1 | 0:00.00 | 3:29.25 | 0 | 15699 2 | 3:29.25 | 7:25.12 | 15700 | 49086 3 | 10:54.37 | 4:32.48 | 49087 | 69534

Трек 1

Имя файла C:\Documents and Settings\LP_Masta\Мои документы\Раздачи для торрентс.ру\Robert Palmer\Singles\1990 - I'll Be Your Baby Tonight feat. UB40 EU CDM\01 - I'll Be Your Baby Tonight.wav

Длина предзазора 0:00:02.00

Пиковый уровень 95.8 % Скорость извлечения 3.3 X Качество трека 100.0 % CRC теста F99DE2D4 CRC копии F99DE2D4 Точное извлечение (достоверность 6) [969F2C4F] (AR v1) Копирование... OK

Трек 2

Имя файла C:\Documents and Settings\LP_Masta\Мои документы\Раздачи для торрентс.ру\Robert Palmer\Singles\1990 - I'll Be Your Baby Tonight feat. UB40 EU CDM\02 - I'll Be Your Baby Tonight (Extended Version).wav

Длина предзазора 0:00:02.48

Пиковый уровень 95.3 % Скорость извлечения 4.1 X Качество трека 100.0 % CRC теста E4715618 CRC копии E4715618 Точное извлечение (достоверность 6) [A6611C3D] (AR v1) Копирование... OK

Трек 3

Имя файла C:\Documents and Settings\LP_Masta\Мои документы\Раздачи для торрентс.ру\Robert Palmer\Singles\1990 - I'll Be Your Baby Tonight feat. UB40 EU CDM\03 - Deep End.wav

Длина предзазора 0:00:02.25

Пиковый уровень 95.3 % Скорость извлечения 4.4 X Качество трека 100.0 % CRC теста 3B5E800C CRC копии 3B5E800C Точное извлечение (достоверность 6) [362D96A2] (AR v1) Копирование... OK

Все треки извлечены точно

Ошибок не произошло

Конец отчёта

---- CUETools DB Plugin V2.1.3

[CTDB TOCID: B7KUFBqh6cSp9chg4ENUENLeNQk-] found, Submit result: B7KUFBqh6cSp9chg4ENUENLeNQk- has been confirmed[a79723a9] (5/5) Accurately ripped

==== Контрольная сумма отчёта BDB19A8B600F33F74C58E06106D631812AAF5643EBB38A0380542E72E14F6694 ====
REM GENRE "Pop Rock"REM DATE 1990REM DISCID 17039F03REM COMMENT "ExactAudioCopy v1.0b3"PERFORMER "Robert Palmer & UB40"TITLE "I'll Be Your Baby Tonight"FILE "01 - I'll Be Your Baby Tonight.wav" WAVE TRACK 01 AUDIO TITLE "I'll Be Your Baby Tonight" PERFORMER "Robert Palmer & UB40" INDEX 01 00:00:00 TRACK 02 AUDIO TITLE "I'll Be Your Baby Tonight (Extended Version)" PERFORMER "Robert Palmer & UB40" INDEX 00 03:26:52FILE "02 - I'll Be Your Baby Tonight (Extended Version).wav" WAVE INDEX 01 00:00:00 TRACK 03 AUDIO TITLE "Deep End" PERFORMER "Robert Palmer & UB40" INDEX 00 07:22:62FILE "03 - Deep End.wav" WAVE INDEX 01 00:00:00


Трекер:  [ 26-Янв-2013 18:38 ]

  

Скачать .torrent

Размер .torrent файла 17 KB


Размер: 101 MB
Хэш (hash) релиза: 9c6b8f5203efebcb471d773c8435253ab01bad4d

Еще никто не оставлял запись к записи скачать торрент Robert Palmer & UB40 - Ill Be Your Baby Tonight - 1990, FLAC . Будь первым!

!Обратная связь