Скачать через торрент музыку Bob Dylan - Bob Dylan - 1962 бесплатно без регистрации torrent

Если у вас наблюдаются проблемы со скриншотами, переходом по ссылками, скачиванием торрентов - проблемы в блокировщике рекламы AdBlock. #хорошегоДня!


Статистика раздачи
Размер:  182 MB   |    Зарегистрирован:  4 года 6 месяцев   |    .torrent скачан:  27 раз   |   
Раздают:  1  
   
Загрузка...
 
Автор Сообщение

Galfimbul

avatar Galfimbul


Bob Dylan / Bob Dylan - 1962

Жанр: Folk-Rock
Страна-производитель диска: Japan
Год издания: 1995
Издатель (лейбл): SME
Номер по каталогу: SRCS-6331
Страна: USA
Аудиокодек: WavPack (*.wv)
Тип рипа: image+.cue
Битрейт аудио: lossless
Продолжительность: 0:36:47
Источник (релизер): Собственный релиз
Наличие сканов в содержимом раздачи: нет
Треклист:
01. You're No Good
02. Talkin' New York
03. In My Time Of Dyin'
04. Man Of Constant Sorrow
05. Fixin' To Die
06. Pretty Peggy-O
07. Highway 51
08. Gospel Plow
09. Baby, Let Me Follow You Down
10. House Of The Risin' Sun
11. Freight Train Blues
12. Song To Woody
13. See That My Grave Is Kept Clean
xact Audio Copy V0.99 prebeta 5 from 4. May 2009

EAC extraction logfile from 25. January 2013, 23:47

Bob Dylan / Bob Dylan.(SRCS-6331)

Used drive : Optiarc DVD RW AD-7200S Adapter: 2 ID: 0

Read mode : SecureUtilize accurate stream : YesDefeat audio cache : YesMake use of C2 pointers : No

Read offset correction : 48Overread into Lead-In and Lead-Out : NoFill up missing offset samples with silence : YesDelete leading and trailing silent blocks : NoNull samples used in CRC calculations : YesUsed interface : Native Win32 interface for Win NT & 2000

Used output format : User Defined EncoderSelected bitrate : 896 kBit/sQuality : HighAdd ID3 tag : NoCommand line compressor : C:\Program Files (x86)\Exact Audio Copy\wavpack.exeAdditional command line options : -hlm %s

TOC of the extracted CD

Track | Start | Length | Start sector | End sector --------------------------------------------------------- 1 | 0:00.00 | 1:40.35 | 0 | 7534 2 | 1:40.35 | 3:19.02 | 7535 | 22461 3 | 4:59.37 | 2:38.73 | 22462 | 34384 4 | 7:38.35 | 3:08.00 | 34385 | 48484 5 | 10:46.35 | 2:21.02 | 48485 | 59061 6 | 13:07.37 | 3:22.73 | 59062 | 74284 7 | 16:30.35 | 2:52.72 | 74285 | 87256 8 | 19:23.32 | 1:46.03 | 87257 | 95209 9 | 21:09.35 | 2:35.00 | 95210 | 106834 10 | 23:44.35 | 5:18.00 | 106835 | 130684 11 | 29:02.35 | 2:19.00 | 130685 | 141109 12 | 31:21.35 | 2:42.02 | 141110 | 153261 13 | 34:03.37 | 2:43.33 | 153262 | 165519

Range status and errors

Selected range

Filename C:\Users\Bishop\Desktop\Bob Dylan - Bob Dylan.(Japan)\Bob Dylan - Bob Dylan.(SRCS-6331).wav

Peak level 68.2 % Range quality 100.0 % Test CRC B697FBA1 Copy CRC B697FBA1 Copy OK

No errors occurred

AccurateRip summary

Track 1 not present in databaseTrack 2 not present in databaseTrack 3 not present in databaseTrack 4 not present in databaseTrack 5 not present in databaseTrack 6 not present in databaseTrack 7 not present in databaseTrack 8 not present in databaseTrack 9 not present in databaseTrack 10 not present in databaseTrack 11 not present in databaseTrack 12 not present in databaseTrack 13 not present in database

None of the tracks are present in the AccurateRip database

End of status report
REM GENRE FolkREM DATE 1962REM DISCID A5089E0DREM COMMENT ExactAudioCopy v0.99pb5PERFORMER "Bob Dylan"TITLE "Bob Dylan.(SRCS-6331)"FILE "Bob Dylan - Bob Dylan.(SRCS-6331).wv" WAVE TRACK 01 AUDIO TITLE "She's No Good" INDEX 01 00:00:00 TRACK 02 AUDIO TITLE "Talkin' New York" INDEX 00 01:38:47 INDEX 01 01:40:35 TRACK 03 AUDIO TITLE "In My Time of Dyin'" INDEX 00 04:57:60 INDEX 01 04:59:37 TRACK 04 AUDIO TITLE "Man of Constant Sorrow" INDEX 00 07:36:72 INDEX 01 07:38:35 TRACK 05 AUDIO TITLE "Fixin' to Die Blues" INDEX 00 10:44:72 INDEX 01 10:46:35 TRACK 06 AUDIO TITLE "Pretty Peggy-O" INDEX 00 13:05:45 INDEX 01 13:07:37 TRACK 07 AUDIO TITLE "Highway 51 blues" INDEX 01 16:30:35 TRACK 08 AUDIO TITLE "Gospel Plow" INDEX 00 19:21:32 INDEX 01 19:23:32 TRACK 09 AUDIO TITLE "Baby, Let Me Follow You Down" INDEX 00 21:07:27 INDEX 01 21:09:35 TRACK 10 AUDIO TITLE "House of the Risin' Sun" INDEX 00 23:43:05 INDEX 01 23:44:35 TRACK 11 AUDIO TITLE "Freight Train Blues" INDEX 00 29:00:72 INDEX 01 29:02:35 TRACK 12 AUDIO TITLE "Song to Woody" INDEX 00 31:19:42 INDEX 01 31:21:35 TRACK 13 AUDIO TITLE "See That My Grave Is Kept Clean" INDEX 00 34:02:17 INDEX 01 34:03:37


Трекер:  [ 26-Янв-2013 11:22 ]

  

Скачать .torrent

Размер .torrent файла 15 KB


Размер: 182 MB
Хэш (hash) релиза: 0156a19af4e8f2509182ed1708694448dd271860

Торренты, похожие на Bob Dylan - Bob Dylan - 1962 скачать торрент

Форум Название Автор Размер S L Добавлен
Rосk | Mеtаl | Аltеrnаtivе, Рunk, Indереndеnt (losslеss) ·· (Folk-Rock) Bob Dylan -1962 - 1999 (6CD) (Japanese Press), WavPack (image+.cue), lossless Galfimbul 11831422801.1 GB 0 0 1371459026

11:50

17-Июн-13

Rосk | Mеtаl | Аltеrnаtivе, Рunk, Indереndеnt (losslеss) ·· (Folk, Folk-Rock, Ballad) Bob Dylan - The Gaslight Tapes 1962 / Live At The Gaslight 1962 - (2001; 2005), FLAC (tracks+.cue), lossless Polarnik 623831493595 MB 0 0 1379990874

05:47

24-Сен-13

Rосk | Mеtаl | Аltеrnаtivе, Рunk, Indереndеnt (mр3) ·· (Folk-Rock, Contemporary Folk, Blues-Rock, Country-Rock, Pop-Rock, Singer/Songwriter) Bob Dylan - Дискография 1962-2017 (153 релиза), MP3, 320 kbps Galfimbul 6448609210460.06 GB 0 0 1493765549

01:52

3-Май-17

Rосk | Mеtаl | Аltеrnаtivе, Рunk, Indереndеnt (mр3) ·· (Folk-Rock, Contemporary Folk, Blues-Rock, Country-Rock, Pop-Rock, Singer/Songwriter) Bob Dylan - Дискография 1962-2016 (148 релизов), MP3, 320 kbps Galfimbul 6352634090259.16 GB 0 0 1482015428

01:57

18-Дек-16

Rосk | Mеtаl | Аltеrnаtivе, Рunk, Indереndеnt (losslеss) ·· (Folk-Rock) Bob Dylan - Official Discography (60 albums, 89 CD) - 1962-2013, FLAC (image+.cue), lossless Galfimbul 3936593423436.66 GB 0 0 1378348747

05:39

5-Сен-13

Еще никто не оставлял запись к записи скачать торрент Bob Dylan - Bob Dylan - 1962 . Будь первым!

!Обратная связь