Скачать через торрент Halestorm - Halestorm - 2009 бесплатно русская версия torrent активатор

Если у вас наблюдаются проблемы со скриншотами, переходом по ссылками, скачиванием торрентов - проблемы в блокировщике рекламы AdBlock. #хорошегоДня!


Статистика раздачи
Размер:  282 MB   |    Зарегистрирован:  4 года 8 месяцев   |    .torrent скачан:  61 раз   |   
Раздают:  1  
   
Загрузка...
 
Автор Сообщение

L


(Hard Rock, Alternative Metal) Halestorm - Halestorm - 2009 (ALAC, tracks), lossless

Год: 2009
Страна: США
Жанр: Hard Rock, Alternative Metal
Продолжительность: 34:05
Тексты: вшиты
Вшитые обложки: есть

Кодек: ALAC
Тип рипа: tracks
Программа-риповщик: X Lossless Decoder (XLD)
Битрейт: lossless

Треклист:
01 - It's Not You
02 - I Get Off
03 - Bet U Wish U Had Me Back
04 - Innocence
05 - Familiar Taste Of Poison
06 - I'm Not An Angel
07 - What Were You Expecting
08 - Love,Hate Heartbreak
09 - Better Safe Than Sorry
10 - Dirty Work
11 - Nothing To Do With Love
Exact Audio Copy V0.99 prebeta 4 from 23. January 2008
EAC extraction logfile from 3. July 2009, 23:45
Halestorm / Halestorm
Used drive : MATSHITADVD-RAM UJ-850S Adapter: 0 ID: 0
Read mode : Secure
Utilize accurate stream : Yes
Defeat audio cache : Yes
Make use of C2 pointers : No
Read offset correction : 102
Overread into Lead-In and Lead-Out : Yes
Fill up missing offset samples with silence : Yes
Delete leading and trailing silent blocks : No
Null samples used in CRC calculations : Yes
Used interface : Native Win32 interface for Win NT & 2000
Gap handling : Appended to previous track
Used output format : User Defined Encoder
Selected bitrate : 320 kBit/s
Quality : High
Add ID3 tag : No
Command line compressor : C:\Program Files\Exact Audio Copy\Flac\flac.exe
Additional command line options : -V -6 -T "artist=%a" -T "title=%t" -T "album=%g" -T "date=%y" -T "tracknumber=%n" -T "genre=%m" %s
TOC of the extracted CD
Track | Start | Length | Start sector | End sector
---------------------------------------------------------
1 | 0:00.00 | 2:54.69 | 0 | 13118
2 | 2:54.69 | 3:03.53 | 13119 | 26896
3 | 5:58.47 | 3:43.16 | 26897 | 43637
4 | 9:41.63 | 3:15.66 | 43638 | 58328
5 | 12:57.54 | 4:04.05 | 58329 | 76633
6 | 17:01.59 | 3:14.65 | 76634 | 91248
7 | 20:16.49 | 3:34.21 | 91249 | 107319
8 | 23:50.70 | 3:18.42 | 107320 | 122211
9 | 27:09.37 | 3:12.26 | 122212 | 136637
10 | 30:21.63 | 3:16.61 | 136638 | 151398
11 | 33:38.49 | 3:30.19 | 151399 | 167167
12 | 39:40.68 | 1:10.24 | 178568 | 183841
Track 1
Filename C:\TEMP\Halestorm - 2009 - Halestorm [FLAC]\01 - It's Not You.wav
Pre-gap length 0:00:02.00
Peak level 100.0 %
Track quality 100.0 %
Test CRC F803F2AB
Copy CRC F803F2AB
Track not present in AccurateRip database
Copy OK
Track 2
Filename C:\TEMP\Halestorm - 2009 - Halestorm [FLAC]\02 - I Get Off.wav
Peak level 100.0 %
Track quality 100.0 %
Test CRC 8ACD9577
Copy CRC 8ACD9577
Track not present in AccurateRip database
Copy OK
Track 3
Filename C:\TEMP\Halestorm - 2009 - Halestorm [FLAC]\03 - Bet U Wish U Had Me Back.wav
Peak level 100.0 %
Track quality 100.0 %
Test CRC A62B5CEB
Copy CRC A62B5CEB
Track not present in AccurateRip database
Copy OK
Track 4
Filename C:\TEMP\Halestorm - 2009 - Halestorm [FLAC]\04 - Innocence.wav
Peak level 100.0 %
Track quality 99.9 %
Test CRC 40F0D1D8
Copy CRC 40F0D1D8
Track not present in AccurateRip database
Copy OK
Track 5
Filename C:\TEMP\Halestorm - 2009 - Halestorm [FLAC]\05 - Familiar Taste Of Poison.wav
Peak level 100.0 %
Track quality 99.9 %
Test CRC A3AA80C0
Copy CRC A3AA80C0
Track not present in AccurateRip database
Copy OK
Track 6
Filename C:\TEMP\Halestorm - 2009 - Halestorm [FLAC]\06 - I'm Not An Angel.wav
Peak level 100.0 %
Track quality 100.0 %
Test CRC 4B30816C
Copy CRC 4B30816C
Track not present in AccurateRip database
Copy OK
Track 7
Filename C:\TEMP\Halestorm - 2009 - Halestorm [FLAC]\07 - What Were You Expecting .wav
Peak level 100.0 %
Track quality 100.0 %
Test CRC 8334D868
Copy CRC 8334D868
Track not present in AccurateRip database
Copy OK
Track 8
Filename C:\TEMP\Halestorm - 2009 - Halestorm [FLAC]\08 - Love,Hate Heartbreak.wav
Peak level 100.0 %
Track quality 99.9 %
Test CRC FA41297A
Copy CRC FA41297A
Track not present in AccurateRip database
Copy OK
Track 9
Filename C:\TEMP\Halestorm - 2009 - Halestorm [FLAC]\09 - Better Safe Than Sorry.wav
Peak level 100.0 %
Track quality 100.0 %
Test CRC 1580A81B
Copy CRC 1580A81B
Track not present in AccurateRip database
Copy OK
Track 10
Filename C:\TEMP\Halestorm - 2009 - Halestorm [FLAC]\10 - Dirty Work.wav
Peak level 100.0 %
Track quality 100.0 %
Test CRC 18753A10
Copy CRC 18753A10
Track not present in AccurateRip database
Copy OK
Track 11
Filename C:\TEMP\Halestorm - 2009 - Halestorm [FLAC]\11 - Nothing To Do With Love.wav
Peak level 100.0 %
Track quality 100.0 %
Test CRC A96766E8
Copy CRC A96766E8
Track not present in AccurateRip database
Copy OK
None of the tracks are present in the AccurateRip database
No errors occurred
End of status report
------------------------------------------------------------


Трекер:  [ 25-Янв-2013 09:48 ]

  

Скачать .torrent

Размер .torrent файла 12 KB


Размер: 282 MB
Хэш (hash) релиза: 3887053dc1d06838b3acc1f064e71986fbf2c23d

Еще никто не оставлял запись к записи скачать торрент Halestorm - Halestorm - 2009 . Будь первым!

!Обратная связь