Скачать через торрент We Have Band WHB - 2010 ALAC, lossless бесплатно русская версия torrent активатор

Если у вас наблюдаются проблемы со скриншотами, переходом по ссылками, скачиванием торрентов - проблемы в блокировщике рекламы AdBlock. #хорошегоДня!


Статистика раздачи
Размер:  305 MB   |    Зарегистрирован:  4 года 8 месяцев   |    .torrent скачан:  95 раз   |   
Раздают:  1  
   
Загрузка...
 
Автор Сообщение

L


We Have Band / WHB

Год: 2010
Страна: UK
Жанр: Electro/Disco
Продолжительность: 45:18
Вшитые тексты: добавлены
Кодек: ALAC
Программа-риповщик : foobar2000 + iTunes (lossless)
Битрейт: lossless
Треклист:
01 Piano 2:32
02 Buffet 4:24
03 Divisive 3:46
04 Love, What You Doing? 4:18
05 Oh! 3:08
06 How To Make Friends 4:02
07 Honeytrap 3:45
08 Hear It In The Cans 3:53
09 Centerfolds & Empty Screens 3:49
10 You Came Out 3:27
11 WHB 3:07
12 Hero Knows 5:08
Exact Audio Copy V0.99 prebeta 5 from 4. May 2009

EAC extraction logfile from 9. March 2010, 19:51

We Have Band / WHB

Used drive : HP DVD Writer 940d Adapter: 2 ID: 0

Read mode : SecureUtilize accurate stream : YesDefeat audio cache : YesMake use of C2 pointers : No

Read offset correction : 6Overread into Lead-In and Lead-Out : NoFill up missing offset samples with silence : YesDelete leading and trailing silent blocks : NoNull samples used in CRC calculations : YesUsed interface : Native Win32 interface for Win NT & 2000Gap handling : Appended to previous track

Used output format : User Defined EncoderSelected bitrate : 320 kBit/sQuality : HighAdd ID3 tag : NoCommand line compressor : C:\Program Files\Exact Audio Copy\FLAC\FLAC.EXEAdditional command line options : -V -8 -T "artist=%a" -T "title=%t" -T "album=%g" -T "date=%y" -T "tracknumber=%n" -T "genre=%m" %s

TOC of the extracted CD

Track | Start | Length | Start sector | End sector --------------------------------------------------------- 1 | 0:00.00 | 2:31.64 | 0 | 11388 2 | 2:31.64 | 4:24.30 | 11389 | 31218 3 | 6:56.19 | 3:46.23 | 31219 | 48191 4 | 10:42.42 | 4:18.19 | 48192 | 67560 5 | 15:00.61 | 3:07.50 | 67561 | 81635 6 | 18:08.36 | 4:01.51 | 81636 | 99761 7 | 22:10.12 | 3:45.35 | 99762 | 116671 8 | 25:55.47 | 3:52.70 | 116672 | 134141 9 | 29:48.42 | 3:48.66 | 134142 | 151307 10 | 33:37.33 | 3:26.72 | 151308 | 166829 11 | 37:04.30 | 3:06.40 | 166830 | 180819 12 | 40:10.70 | 5:07.50 | 180820 | 203894

Track 1

Filename D:\OINK\Upload\We Have Band - 2010 - WHB\01 - We Have Band - 01. Piano [02-31].wav

Pre-gap length 0:00:02.00

Peak level 100.0 % Track quality 100.0 % Test CRC AF477DD1 Copy CRC AF477DD1 Track not present in AccurateRip database Copy OK

Track 2

Filename D:\OINK\Upload\We Have Band - 2010 - WHB\02 - We Have Band - 02. Buffet [04-24].wav

Peak level 100.0 % Track quality 100.0 % Test CRC D772DB29 Copy CRC D772DB29 Track not present in AccurateRip database Copy OK

Track 3

Filename D:\OINK\Upload\We Have Band - 2010 - WHB\03 - We Have Band - 03. Divisive [03-46].wav

Peak level 100.0 % Track quality 100.0 % Test CRC 4FAC737F Copy CRC 4FAC737F Track not present in AccurateRip database Copy OK

Track 4

Filename D:\OINK\Upload\We Have Band - 2010 - WHB\04 - We Have Band - 04. Love, What You Doing [04-18].wav

Pre-gap length 0:00:00.61

Peak level 100.0 % Track quality 100.0 % Test CRC 9D3357CB Copy CRC 9D3357CB Track not present in AccurateRip database Copy OK

Track 5

Filename D:\OINK\Upload\We Have Band - 2010 - WHB\05 - We Have Band - 05. Oh! [03-07].wav

Pre-gap length 0:00:00.01

Peak level 100.0 % Track quality 100.0 % Test CRC E28146A0 Copy CRC E28146A0 Track not present in AccurateRip database Copy OK

Track 6

Filename D:\OINK\Upload\We Have Band - 2010 - WHB\06 - We Have Band - 06. How To Make Friends [04-01].wav

Pre-gap length 0:00:01.21

Peak level 100.0 % Track quality 100.0 % Test CRC AAB6C528 Copy CRC AAB6C528 Track not present in AccurateRip database Copy OK

Track 7

Filename D:\OINK\Upload\We Have Band - 2010 - WHB\07 - We Have Band - 07. Honeytrap [03-45].wav

Peak level 100.0 % Track quality 99.9 % Test CRC C374AAE0 Copy CRC C374AAE0 Track not present in AccurateRip database Copy OK

Track 8

Filename D:\OINK\Upload\We Have Band - 2010 - WHB\08 - We Have Band - 08. Hear It In The Cans [03-52].wav

Pre-gap length 0:00:01.80

Peak level 100.0 % Track quality 100.0 % Test CRC DF839CD5 Copy CRC DF839CD5 Track not present in AccurateRip database Copy OK

Track 9

Filename D:\OINK\Upload\We Have Band - 2010 - WHB\09 - We Have Band - 09. Centerfolds & Empty Screens [03-48].wav

Pre-gap length 0:00:01.44

Peak level 100.0 % Track quality 100.0 % Test CRC 27BC0866 Copy CRC 27BC0866 Track not present in AccurateRip database Copy OK

Track 10

Filename D:\OINK\Upload\We Have Band - 2010 - WHB\10 - We Have Band - 10. You Came Out [03-27].wav

Peak level 100.0 % Track quality 100.0 % Test CRC 01D70E4A Copy CRC 01D70E4A Track not present in AccurateRip database Copy OK

Track 11

Filename D:\OINK\Upload\We Have Band - 2010 - WHB\11 - We Have Band - 11. WHB [03-06].wav

Pre-gap length 0:00:01.45

Peak level 100.0 % Track quality 100.0 % Test CRC 1AAB2E65 Copy CRC 1AAB2E65 Track not present in AccurateRip database Copy OK

Track 12

Filename D:\OINK\Upload\We Have Band - 2010 - WHB\12 - We Have Band - 12. Hero Knows [05-07].wav

Pre-gap length 0:00:01.12

Peak level 100.0 % Track quality 100.0 % Test CRC 30F839E8 Copy CRC 30F839E8 Track not present in AccurateRip database Copy OK

None of the tracks are present in the AccurateRip database

No errors occurred

End of status report


Трекер:  [ 25-Янв-2013 09:48 ]

  

Скачать .torrent

Размер .torrent файла 13 KB


Размер: 305 MB
Хэш (hash) релиза: 1160bd4a2c9392ff3234f3a5b6197a1a32e64b82

Еще никто не оставлял запись к записи скачать торрент We Have Band WHB - 2010 ALAC, lossless . Будь первым!

!Обратная связь