Скачать через торрент We Have Band Ternion - 2012 ALAC, lossless бесплатно русская версия torrent активатор

Если у вас наблюдаются проблемы со скриншотами, переходом по ссылками, скачиванием торрентов - проблемы в блокировщике рекламы AdBlock. #хорошегоДня!


Статистика раздачи
Размер:  459 MB   |    Зарегистрирован:  4 года 8 месяцев   |    .torrent скачан:  86 раз   |   
Раздают:  1  
   
Загрузка...
 
Автор Сообщение

L


We Have Band / Ternion

Год: 2012
Страна: UK
Жанр: Eectro/Disco
Продолжительность: 01:10:53
Вшитые тексты: добавлены частично
Кодек: ALAC
Программа-риповщик : foobar2000 + iTunes (lossless)
Битрейт: lossless
Треклист:
CD1
01 Shift 4:39
02 After All 4:15
03 Where Are Your People? 3:54
04 Visionary 5:02
05 What's Mine, What's Yours 4:12
06 Steel In The Groove 5:04
07 Tired Of Running 4:41
08 Watertight 4:00
09 Rivers Of Blood 3:12
10 Pressure On 4:57
CD2
01 Ternion Aside 26:57
X Lossless Decoder version 20120609 (141.0)

XLD extraction logfile from 2012-06-13 01:03:34 +0200

We Have Band / Ternion

Used drive : MATSHITA DVD-R UJ-898 (revision HE13)

Ripper mode : XLD Secure RipperDisable audio cache : OK for the drive with a cache less than 1375KiBMake use of C2 pointers : NORead offset correction : 102Max retry count : 20Gap status : Analyzed, Appended

TOC of the extracted CD Track | Start | Length | Start sector | End sector --------------------------------------------------------- 1 | 00:00:00 | 04:39:08 | 0 | 20932 2 | 04:39:08 | 04:15:21 | 20933 | 40078 3 | 08:54:29 | 03:53:58 | 40079 | 57611 4 | 12:48:12 | 05:01:68 | 57612 | 80254 5 | 17:50:05 | 04:12:16 | 80255 | 99170 6 | 22:02:21 | 05:03:55 | 99171 | 121950 7 | 27:06:01 | 04:41:08 | 121951 | 143033 8 | 31:47:09 | 04:00:19 | 143034 | 161052 9 | 35:47:28 | 03:11:53 | 161053 | 175430 10 | 38:59:06 | 04:56:64 | 175431 | 197694

AccurateRip Summary (DiscID: 0010bdfe-0085bf1e-7b0a4b0a) Track 01 : OK (v2, confidence 1/1) Track 02 : OK (v2, confidence 1/1) Track 03 : OK (v2, confidence 1/1) Track 04 : OK (v2, confidence 1/1) Track 05 : OK (v2, confidence 1/1) Track 06 : OK (v2, confidence 1/1) Track 07 : OK (v2, confidence 1/1) Track 08 : OK (v2, confidence 1/1) Track 09 : OK (v2, confidence 1/1) Track 10 : OK (v2, confidence 1/1) ->All tracks accurately ripped.

All Tracks Album gain : -8.96 dB Peak : 1.000000 Statistics Read error : 0 Jitter error (maybe fixed) : 0 Retry sector count : 0 Damaged sector count : 0

Track 01 Filename : /Users/Rip/We have band - Ternion/We Have Band - Ternion (2012) [FLAC]/01 Shift.flac /Users/Rip/We have band - Ternion/We Have Band - Ternion (2012) [V0]/01 Shift.mp3 Pre-gap length : 00:02:00

Track gain : -8.59 dB Peak : 0.992493 CRC32 hash (test run) : 3678ABEA CRC32 hash : 3678ABEA CRC32 hash (skip zero) : 56F3A02B AccurateRip v1 signature : 22C1CF3A AccurateRip v2 signature : 07D6A294 ->Accurately ripped (v2, confidence 1/1) Statistics Read error : 0 Jitter error (maybe fixed) : 0 Retry sector count : 0 Damaged sector count : 0

Track 02 Filename : /Users/Rip/We have band - Ternion/We Have Band - Ternion (2012) [FLAC]/02 After All.flac /Users/Rip/We have band - Ternion/We Have Band - Ternion (2012) [V0]/02 After All.mp3 Pre-gap length : 00:01:34

Track gain : -9.08 dB Peak : 0.988708 CRC32 hash (test run) : 1291171F CRC32 hash : 1291171F CRC32 hash (skip zero) : FACDA461 AccurateRip v1 signature : 61D5D60B AccurateRip v2 signature : 784A5F5A ->Accurately ripped (v2, confidence 1/1) Statistics Read error : 0 Jitter error (maybe fixed) : 0 Retry sector count : 0 Damaged sector count : 0

Track 03 Filename : /Users/Rip/We have band - Ternion/We Have Band - Ternion (2012) [FLAC]/03 Where Are Your People?.flac /Users/Rip/We have band - Ternion/We Have Band - Ternion (2012) [V0]/03 Where Are Your People?.mp3 Pre-gap length : 00:01:63

Track gain : -9.16 dB Peak : 1.000000 CRC32 hash (test run) : 062CDA35 CRC32 hash : 062CDA35 CRC32 hash (skip zero) : 312005D0 AccurateRip v1 signature : DE279618 AccurateRip v2 signature : 4B49419E ->Accurately ripped (v2, confidence 1/1) Statistics Read error : 0 Jitter error (maybe fixed) : 0 Retry sector count : 0 Damaged sector count : 0

Track 04 Filename : /Users/Rip/We have band - Ternion/We Have Band - Ternion (2012) [FLAC]/04 Visionary.flac /Users/Rip/We have band - Ternion/We Have Band - Ternion (2012) [V0]/04 Visionary.mp3 Pre-gap length : 00:03:46

Track gain : -9.11 dB Peak : 0.995850 CRC32 hash (test run) : 88A03D38 CRC32 hash : 88A03D38 CRC32 hash (skip zero) : 0B98C068 AccurateRip v1 signature : 051C858F AccurateRip v2 signature : 27E7BB66 ->Accurately ripped (v2, confidence 1/1) Statistics Read error : 0 Jitter error (maybe fixed) : 0 Retry sector count : 0 Damaged sector count : 0

Track 05 Filename : /Users/Rip/We have band - Ternion/We Have Band - Ternion (2012) [FLAC]/05 What's Mine, What's Yours.flac /Users/Rip/We have band - Ternion/We Have Band - Ternion (2012) [V0]/05 What's Mine, What's Yours.mp3 Pre-gap length : 00:02:59

Track gain : -8.92 dB Peak : 1.000000 CRC32 hash (test run) : B7DD8C42 CRC32 hash : B7DD8C42 CRC32 hash (skip zero) : 653CECF3 AccurateRip v1 signature : FF937928 AccurateRip v2 signature : 34B26F79 ->Accurately ripped (v2, confidence 1/1) Statistics Read error : 0 Jitter error (maybe fixed) : 0 Retry sector count : 0 Damaged sector count : 0

Track 06 Filename : /Users/Rip/We have band - Ternion/We Have Band - Ternion (2012) [FLAC]/06 Steel In The Groove.flac /Users/Rip/We have band - Ternion/We Have Band - Ternion (2012) [V0]/06 Steel In The Groove.mp3 Pre-gap length : 00:01:32

Track gain : -9.31 dB Peak : 1.000000 CRC32 hash (test run) : EC9164B6 CRC32 hash : EC9164B6 CRC32 hash (skip zero) : F2A78830 AccurateRip v1 signature : B50C7B30 AccurateRip v2 signature : ED80C9F0 ->Accurately ripped (v2, confidence 1/1) Statistics Read error : 0 Jitter error (maybe fixed) : 0 Retry sector count : 0 Damaged sector count : 0

Track 07 Filename : /Users/Rip/We have band - Ternion/We Have Band - Ternion (2012) [FLAC]/07 Tired Of Running.flac /Users/Rip/We have band - Ternion/We Have Band - Ternion (2012) [V0]/07 Tired Of Running.mp3 Pre-gap length : 00:03:24

Track gain : -9.11 dB Peak : 0.996704 CRC32 hash (test run) : 7AAB4B21 CRC32 hash : 7AAB4B21 CRC32 hash (skip zero) : 3C9834AE AccurateRip v1 signature : FB0ABD90 AccurateRip v2 signature : 6CEB79B3 ->Accurately ripped (v2, confidence 1/1) Statistics Read error : 0 Jitter error (maybe fixed) : 0 Retry sector count : 0 Damaged sector count : 0

Track 08 Filename : /Users/Rip/We have band - Ternion/We Have Band - Ternion (2012) [FLAC]/08 Watertight.flac /Users/Rip/We have band - Ternion/We Have Band - Ternion (2012) [V0]/08 Watertight.mp3 Pre-gap length : 00:02:17

Track gain : -8.87 dB Peak : 1.000000 CRC32 hash (test run) : A07F8C27 CRC32 hash : A07F8C27 CRC32 hash (skip zero) : 873B0A9A AccurateRip v1 signature : 6B696394 AccurateRip v2 signature : EF5C5204 ->Accurately ripped (v2, confidence 1/1) Statistics Read error : 0 Jitter error (maybe fixed) : 0 Retry sector count : 0 Damaged sector count : 0

Track 09 Filename : /Users/Rip/We have band - Ternion/We Have Band - Ternion (2012) [FLAC]/09 Rivers Of Blood.flac /Users/Rip/We have band - Ternion/We Have Band - Ternion (2012) [V0]/09 Rivers Of Blood.mp3

Track gain : -8.29 dB Peak : 1.000000 CRC32 hash (test run) : 4FE50F3A CRC32 hash : 4FE50F3A CRC32 hash (skip zero) : 87D532AB AccurateRip v1 signature : B432C72B AccurateRip v2 signature : B531AEF4 ->Accurately ripped (v2, confidence 1/1) Statistics Read error : 0 Jitter error (maybe fixed) : 0 Retry sector count : 0 Damaged sector count : 0

Track 10 Filename : /Users/Rip/We have band - Ternion/We Have Band - Ternion (2012) [FLAC]/10 Pressure On.flac /Users/Rip/We have band - Ternion/We Have Band - Ternion (2012) [V0]/10 Pressure On.mp3 Pre-gap length : 00:00:52

Track gain : -6.30 dB Peak : 0.981750 CRC32 hash (test run) : 1C655E68 CRC32 hash : 1C655E68 CRC32 hash (skip zero) : 97196A7A AccurateRip v1 signature : 3E321D3F AccurateRip v2 signature : 5435CD39 ->Accurately ripped (v2, confidence 1/1) Statistics Read error : 0 Jitter error (maybe fixed) : 0 Retry sector count : 0 Damaged sector count : 0

No errors occurred

End of status report

/X Lossless Decoder version 20120609 (141.0)

XLD extraction logfile from 2012-06-13 01:31:58 +0200

We Have Band / Ternion

Used drive : MATSHITA DVD-R UJ-898 (revision HE13)

Ripper mode : XLD Secure RipperDisable audio cache : OK for the drive with a cache less than 1375KiBMake use of C2 pointers : NORead offset correction : 102Max retry count : 20Gap status : Analyzed, Appended

TOC of the extracted CD Track | Start | Length | Start sector | End sector --------------------------------------------------------- 1 | 00:00:00 | 26:56:63 | 0 | 121262

AccurateRip Summary (DiscID: 0001d9af-0003b35f-02065001) Track 01 : OK (v2, confidence 1/1) ->All tracks accurately ripped.

All Tracks Album gain : -8.45 dB Peak : 1.000000 Statistics Read error : 0 Jitter error (maybe fixed) : 0 Retry sector count : 0 Damaged sector count : 0

Track 01 Filename : /Users/Rip/We have band - Ternion/We have band - Ternion CD2/We Have Band - Ternion (2012) [FLAC]/01 Ternion Aside.flac /Users/Rip/We have band - Ternion/We have band - Ternion CD2/We Have Band - Ternion (2012) [V0]/01 Ternion Aside.mp3 Pre-gap length : 00:02:00

Track gain : -8.45 dB Peak : 1.000000 CRC32 hash (test run) : 5CD5CFA2 CRC32 hash : 5CD5CFA2 CRC32 hash (skip zero) : 8783803E AccurateRip v1 signature : B9F08797 AccurateRip v2 signature : 47D25086 ->Accurately ripped (v2, confidence 1/1) Statistics Read error : 0 Jitter error (maybe fixed) : 0 Retry sector count : 0 Damaged sector count : 0

No errors occurred

End of status report


Трекер:  [ 25-Янв-2013 09:48 ]

  

Скачать .torrent

Размер .torrent файла 19 KB


Размер: 459 MB
Хэш (hash) релиза: b5caec22851ec5938183653c77d54c175d1db102

Еще никто не оставлял запись к записи скачать торрент We Have Band Ternion - 2012 ALAC, lossless . Будь первым!

!Обратная связь